<?xml version="1.0" standalone="no"?>
<!DOCTYPE svg PUBLIC "-//W3C//DTD SVG 1.1//EN" "http://www.w3.org/Graphics/SVG/1.1/DTD/svg11.dtd" >
<svg>
<metadata>
Created by FontForge 20090914 at Sat Feb 16 10:54:41 2019
 By www-data
Copyright (c) 2010 by Ryoichi Tsunekawa. All rights reserved.
</metadata>
<defs>
<font id="BebasNeueBold" horiz-adv-x="396" >
  <font-face 
    font-family="BebasNeueBold"
    font-weight="700"
    font-stretch="normal"
    units-per-em="1000"
    panose-1="2 11 6 6 2 2 2 5 2 1"
    ascent="750"
    descent="-250"
    x-height="700"
    cap-height="700"
    bbox="-137 -179 1000 894"
    underline-thickness="50"
    underline-position="-60"
    unicode-range="U+0020-U+2248"
  />
<missing-glyph horiz-adv-x="548" 
d="M50 0v700h448v-700h-448zM416 615h-77l-64 -195l-63 195h-86l87 -258l-93 -272h77l69 210l68 -210h88l-93 272z" />
    <glyph glyph-name=".notdef" horiz-adv-x="548" 
d="M50 0v700h448v-700h-448zM416 615h-77l-64 -195l-63 195h-86l87 -258l-93 -272h77l69 210l68 -210h88l-93 272z" />
    <glyph glyph-name="space" unicode=" " horiz-adv-x="155" 
 />
    <glyph glyph-name="exclam" unicode="!" horiz-adv-x="190" 
d="M136 155h-82l-14 253v292h110v-292zM42 106h106v-106h-106v106z" />
    <glyph glyph-name="quotedbl" unicode="&#x22;" horiz-adv-x="325" 
d="M55 494l-15 206h106l-16 -206h-75zM194 494l-15 206h106l-16 -206h-75z" />
    <glyph glyph-name="numbersign" unicode="#" horiz-adv-x="410" 
d="M198 0l21 200h-65l-21 -200h-90l21 200h-49l8 78h49l19 183h-50l8 78h50l17 161h90l-17 -161h65l17 161h90l-17 -161h51l-8 -78h-51l-19 -183h51l-8 -78h-51l-21 -200h-90zM181 461l-19 -183h65l19 183h-65z" />
    <glyph glyph-name="dollar" unicode="$" 
d="M37 522c0 96.667 38.667 153.668 116 171.001v52h90v-52c78.667 -16 118 -73 118 -171v-22h-104v29c0 46 -18.333 69 -55 69s-55 -23 -55 -69c0 -26 7.33301 -49.833 22 -71.5s32.5 -40.834 53.5 -57.501l63.5 -52.5c21.333 -18.333 39.333 -42 54 -71
s22 -61.833 22 -98.5c0 -48 -10.167 -86.667 -30.5 -116s-49.833 -48 -88.5 -56v-51h-90v51c-79.333 16 -119 73.333 -119 172v48h104v-55c0 -45.333 19 -68 57 -68s57 22.667 57 68c0 22 -5.33301 42.667 -16 62s-24 35.5 -40 48.5l-51.5 44
c-18.333 16.333 -35.5 32.5 -51.5 48.5s-29.333 36.833 -40 62.5s-16 54.167 -16 85.5z" />
    <glyph glyph-name="percent" unicode="%" horiz-adv-x="627" 
d="M104 598v-240c0 -29.333 12 -44 36 -44s36 14.667 36 44v240c0 29.333 -12 44 -36 44s-36 -14.667 -36 -44zM34 363v230c0 36 9 63.667 27 83s44.333 29 79 29s61 -9.66699 79 -29s27 -47 27 -83v-230c0 -36 -9 -63.667 -27 -83s-44.333 -29 -79 -29s-61 9.66699 -79 29
s-27 47 -27 83zM140 0l276 700h65l-276 -700h-65zM451 342v-240c0 -29.333 12 -44 36 -44s36 14.667 36 44v240c0 29.333 -12 44 -36 44s-36 -14.667 -36 -44zM381 107v230c0 36 9 63.667 27 83s44.333 29 79 29s61 -9.66699 79 -29s27 -47 27 -83v-230
c0 -36 -9 -63.667 -27 -83s-44.333 -29 -79 -29s-61 9.66699 -79 29s-27 47 -27 83z" />
    <glyph glyph-name="ampersand" unicode="&#x26;" horiz-adv-x="414" 
d="M41 223c0 75.333 25.332 124.333 75.999 147c-50.667 21.333 -76 69.333 -76 144v13c0 115.333 54.667 173 164 173h126v-100h-124c-37.333 0 -56 -22.667 -56 -68v-43c0 -26.667 5.5 -45.667 16.5 -57s27.5 -17 49.5 -17h48v78h110v-78h29v-100h-29v-230
c0 -38 4 -66.333 12 -85h-112c-5.33301 14.667 -8.66602 33 -9.99902 55c-19.333 -42 -53.333 -63 -102 -63c-81.333 0 -122 53.333 -122 160v71zM150.999 161c0 -46 18.999 -69 56.999 -69c36 0 55 20.333 57 61v162h-42c-25.333 0 -43.666 -6.83301 -54.999 -20.5
s-17 -36.5 -17 -68.5v-65z" />
    <glyph glyph-name="quotesingle" unicode="'" horiz-adv-x="180" 
d="M52 494l-15 206h106l-16 -206h-75z" />
    <glyph glyph-name="parenleft" unicode="(" horiz-adv-x="251" 
d="M201 700l34 0.00195312v-90h-27c-18 0 -31 -4.5 -39 -13.5s-12 -25.5 -12 -49.5v-394c0 -24 4 -40.5 12 -49.5s21 -13.5 39 -13.5h27v-90h-34c-55.333 0 -94.833 11.667 -118.5 35s-35.5 62.666 -35.5 117.999v394c0 55.333 11.833 94.666 35.5 117.999
s63.167 35 118.5 35z" />
    <glyph glyph-name="parenright" unicode=")" horiz-adv-x="251" 
d="M16 700l34 -0.00195312c55.333 0 94.833 -11.667 118.5 -35s35.5 -62.666 35.5 -117.999v-394c0 -55.333 -11.833 -94.666 -35.5 -117.999s-63.167 -35 -118.5 -35h-34v90h27c18 0 31 4.5 39 13.5s12 25.5 12 49.5v394c0 24 -4 40.5 -12 49.5s-21 13.5 -39 13.5h-27v90z
" />
    <glyph glyph-name="asterisk" unicode="*" 
d="M30 610l149 -75l-26 165h90l-26 -165l149 75l28 -85l-164 -28l117 -117l-72 -53l-77 148l-77 -148l-72 53l117 117l-164 28z" />
    <glyph glyph-name="plus" unicode="+" 
d="M237 524v-135h134v-78h-134v-137h-78v137h-134v78h134v135h78z" />
    <glyph glyph-name="comma" unicode="," horiz-adv-x="186" 
d="M82 0h-42v106h106v-95l-48 -111h-45z" />
    <glyph glyph-name="hyphen" unicode="-" horiz-adv-x="270" 
d="M35 300v100h200v-100h-200z" />
    <glyph glyph-name="period" unicode="." horiz-adv-x="186" 
d="M40 106h106v-106h-106v106z" />
    <glyph glyph-name="slash" unicode="/" horiz-adv-x="381" 
d="M5 0l276 700h95l-276 -700h-95z" />
    <glyph glyph-name="zero" unicode="0" 
d="M141 539v-378c0 -46 19 -69 57 -69s57 23 57 69v378c0 46 -19 69 -57 69s-57 -23 -57 -69zM31 168v364c0 56 14.333 99.333 43 130s70 46 124 46s95.333 -15.333 124 -46s43 -74 43 -130v-364c0 -56 -14.333 -99.333 -43 -130s-70 -46 -124 -46s-95.333 15.333 -124 46
s-43 74 -43 130z" />
    <glyph glyph-name="one" unicode="1" 
d="M108 534v78c38 0 65 7.33301 81 22s29.333 36.667 40 66h74v-700h-110v534h-85z" />
    <glyph glyph-name="two" unicode="2" 
d="M258 528c0 30 -4.83203 50.834 -14.499 62.501s-23.834 17.5 -42.501 17.5c-38 0 -57 -23 -57 -69v-75h-104v68c0 56.667 14 100.167 42 130.5s68.667 45.5 122 45.5s94 -15.167 122 -45.5s42 -73.833 42 -130.5c0 -40.667 -7.5 -79.334 -22.5 -116.001
s-33.333 -68 -55 -94s-43.167 -50.333 -64.5 -73s-39.5 -45.5 -54.5 -68.5s-22.5 -44.833 -22.5 -65.5c0 -6.66699 0.333008 -11.667 1 -15h208v-100h-318v86c0 38 7.5 72.833 22.5 104.5s33.167 59.334 54.5 83.001l64 70c21.333 23 39.5 50.167 54.5 81.5
s22.5 65.666 22.5 102.999z" />
    <glyph glyph-name="three" unicode="3" 
d="M252 489l-0.000976562 39c0 30 -4.83301 50.833 -14.5 62.5s-23.834 17.5 -42.501 17.5c-38 0 -57 -23 -57 -69v-45h-104v38c0 56.667 14 100.167 42 130.5s68.667 45.5 122 45.5s94 -15.167 122 -45.5s42 -73.833 42 -130.5v-18c0 -74.667 -25.667 -122.667 -77 -144
c51.333 -22.667 77 -71.667 77 -147v-55c0 -56.667 -14 -100.167 -42 -130.5s-68.667 -45.5 -122 -45.5s-94 15.167 -122 45.5s-42 73.833 -42 130.5v58h104v-65c0 -46 19 -69 57 -69c18.667 0 32.834 5.83301 42.501 17.5s14.5 32.167 14.5 61.5v55
c0 32 -5.66699 54.833 -17 68.5s-29.666 20.5 -54.999 20.5h-37v100h43c22 0 38.5 5.66699 49.5 17s16.5 30.333 16.5 57z" />
    <glyph glyph-name="four" unicode="4" 
d="M14 127v100l200 473h120v-473h52v-100h-52v-127h-108v127h-212zM115 227h111v263z" />
    <glyph glyph-name="five" unicode="5" 
d="M35 226h104v-65c0 -45.333 19 -68 57 -68s57 22.667 57 68v154c0 46 -19 69 -57 69s-57 -23 -57 -69v-21h-104l20 406h290v-100h-191l-9 -167c20.667 34 52.667 51 96 51c81.333 0 122 -53.333 122 -160v-156c0 -56.667 -14 -100.167 -42 -130.5
s-68.667 -45.5 -122 -45.5s-94 15.167 -122 45.5s-42 73.833 -42 130.5v58z" />
    <glyph glyph-name="six" unicode="6" 
d="M33 168v358c0 121.333 56 182 168 182c53.333 0 94 -15.167 122 -45.5s42 -73.833 42 -130.5v-18h-104v25c0 46 -19 69 -57 69c-20.667 0 -36 -6.33301 -46 -19s-15 -35 -15 -67v-128c19.333 41.333 53.333 62 102 62c81.333 0 122 -53.333 122 -160v-128
c0 -56 -14.333 -99.333 -43 -130s-70 -46 -124 -46s-95.333 15.333 -124 46s-43 74 -43 130zM200 356c-38 0 -57 -23 -57 -69v-126c0 -45.333 19 -68 57 -68s57 22.667 57 68v126c0 46 -19 69 -57 69z" />
    <glyph glyph-name="seven" unicode="7" 
d="M33 700h330v-96l-162 -604h-110l161 600h-219v100z" />
    <glyph glyph-name="eight" unicode="8" 
d="M370 168c0 -56 -14.833 -99.333 -44.5 -130s-72.167 -46 -127.5 -46s-97.833 15.333 -127.5 46s-44.5 74 -44.5 130v55c0 72 22.667 120.667 68 146c-45.333 24.667 -68 71.667 -68 141v22c0 56 14.833 99.333 44.5 130s72.167 46 127.5 46s97.833 -15.333 127.5 -46
s44.5 -74 44.5 -130v-22c0 -68.667 -22.667 -115.667 -68 -141c45.333 -25.333 68 -74 68 -146v-55zM136 171c0 -52.667 20.666 -79 61.999 -79c40.667 0 61.334 26.333 62.001 79v65c0 52.667 -20.667 79 -62 79s-62 -26.333 -62 -79v-65zM135.999 528v-39
c0 -49.333 20.667 -74 62 -74s62 24.667 62 74v39c0 53.333 -20.667 80 -62 80s-62 -26.667 -62 -80z" />
    <glyph glyph-name="nine" unicode="9" 
d="M363 532v-358c0 -121.333 -56 -182 -168 -182c-53.333 0 -94 15.167 -122 45.5s-42 73.833 -42 130.5v18h104v-25c0 -46 19 -69 57 -69c20.667 0 36 6.33301 46 19s15 35 15 67v128c-19.333 -41.333 -53.333 -62 -102 -62c-81.333 0 -122 53.333 -122 160v128
c0 56 14.333 99.333 43 130s70 46 124 46s95.333 -15.333 124 -46s43 -74 43 -130zM196 344c38 0 57 23 57 69v126c0 45.333 -19 68 -57 68s-57 -22.667 -57 -68v-126c0 -46 19 -69 57 -69z" />
    <glyph glyph-name="colon" unicode=":" horiz-adv-x="186" 
d="M40 106h106v-106h-106v106zM40 487h106v-106h-106v106z" />
    <glyph glyph-name="semicolon" unicode=";" horiz-adv-x="186" 
d="M82 0h-42v106h106v-95l-48 -111h-45zM40 487h106v-106h-106v106z" />
    <glyph glyph-name="less" unicode="&#x3c;" 
d="M356 191l-326 120v78l326 120v-79l-224 -80l224 -80v-79z" />
    <glyph glyph-name="equal" unicode="=" 
d="M35 308h326v-78h-326v78zM35 470h326v-78h-326v78z" />
    <glyph glyph-name="greater" unicode="&#x3e;" 
d="M366 311l-326 -120v79l224 80l-224 80v79l326 -120v-78z" />
    <glyph glyph-name="question" unicode="?" horiz-adv-x="360" 
d="M218 155h-98c-4 12 -6 26.333 -6 43c0 34 6.33301 65.167 19 93.5s26.334 51.333 41.001 69s28.334 42.167 41.001 73.5s19 66.333 19 105c0 46 -18.333 69 -55 69s-55 -23 -55 -69v-76h-104v69c0 56.667 13.667 100.167 41 130.5s67.666 45.5 120.999 45.5
s93.666 -15.167 120.999 -45.5s41 -73.833 41 -130.5c0 -40.667 -6.83301 -77.834 -20.5 -111.501s-28.5 -59.667 -44.5 -78s-30.833 -40.666 -44.5 -66.999s-20.5 -53.5 -20.5 -81.5c0 -14.667 1.33301 -27.667 4 -39zM115 106h106v-106h-106v106z" />
    <glyph glyph-name="at" unicode="@" horiz-adv-x="689" 
d="M476 127c-54.667 0 -84 22.002 -88 66.002c-20.667 -42 -53 -62 -97 -60c-70.667 2 -100.667 53.333 -90 154l11 101c5.33301 49.333 18.333 86.666 39 111.999s48.334 37.333 83.001 36c41.333 -0.666992 68.666 -21.334 81.999 -62.001l6 58h96l-30 -289
c-2 -16.667 4.66699 -25 20 -25c26 0 45.833 23.167 59.5 69.5s20.5 98.5 20.5 156.5c0 65.333 -16.333 116.833 -49 154.5s-82.667 56.5 -150 56.5c-88 0 -155.167 -32.667 -201.5 -98s-69.5 -156 -69.5 -272c0 -82.667 19.5 -146.834 58.5 -192.501
s97.167 -68.5 174.5 -68.5c79.333 0 148.333 22.667 207 68l-8 -96c-56 -37.333 -124.333 -56 -205 -56c-108.667 0 -189.334 31.167 -242.001 93.5s-79 147.833 -79 256.5c0 62.667 7.83301 121 23.5 175s38.334 101.5 68.001 142.5s68.334 73.333 116.001 97
s101.5 35.5 161.5 35.5c98.667 0 169.667 -26.667 213 -80s65 -124.666 65 -213.999c0 -58 -6.33301 -108.833 -19 -152.5s-29.334 -77 -50.001 -100s-41.5 -39.833 -62.5 -50.5s-42.167 -16 -63.5 -16zM307 377.002l-8.99902 -84.999
c-4.66699 -42.667 9.66602 -64.667 42.999 -66c15.333 -0.666992 27.833 4.16602 37.5 14.499s15.834 26.5 18.501 48.5l10 95c2 18.667 -1 32.667 -9 42s-19.333 14 -34 14c-16 0.666992 -28.833 -4 -38.5 -14s-15.834 -26.333 -18.501 -49z" />
    <glyph glyph-name="A" unicode="A" horiz-adv-x="407" 
d="M284 700l112 -700h-111l-19 127h-135l-19 -127h-101l112 700h161zM198 576l-53 -354h106z" />
    <glyph glyph-name="B" unicode="B" horiz-adv-x="406" 
d="M206 700c56.667 0 98 -13.167 124 -39.5s39 -66.833 39 -121.5v-25c0 -72 -23.667 -119 -71 -141c54.667 -21.333 82 -71.333 82 -150v-57c0 -54 -14.167 -95.167 -42.5 -123.5s-69.833 -42.5 -124.5 -42.5h-173v700h166zM199 315l-48.999 0.000976562v-215h63
c19.333 0 33.666 5.16699 42.999 15.5s14 28.166 14 53.499v61c0 32 -5.5 54.167 -16.5 66.5s-29.167 18.5 -54.5 18.5zM203.001 600.001h-53v-185h43c22 0 38.5 5.66699 49.5 17s16.5 30.333 16.5 57v39c0 48 -18.667 72 -56 72z" />
    <glyph glyph-name="C" unicode="C" horiz-adv-x="386" 
d="M255 261h104v-93c0 -56.667 -14 -100.167 -42 -130.5s-68.667 -45.5 -122 -45.5s-94 15.167 -122 45.5s-42 73.833 -42 130.5v364c0 56.667 14 100.167 42 130.5s68.667 45.5 122 45.5s94 -15.167 122 -45.5s42 -73.833 42 -130.5v-68h-104v75c0 46 -19 69 -57 69
s-57 -23 -57 -69v-378c0 -45.333 19 -68 57 -68s57 22.667 57 68v100z" />
    <glyph glyph-name="D" unicode="D" horiz-adv-x="408" 
d="M40 0v700h174c109.333 0 164 -57.667 164 -173v-354c0 -115.333 -54.667 -173 -164 -173h-174zM212 600h-62v-500h62c37.333 0 56 22.667 56 68v364c0 45.333 -18.667 68 -56 68z" />
    <glyph glyph-name="E" unicode="E" horiz-adv-x="368" 
d="M150 600v-195h151v-100h-151v-205h190v-100h-300v700h300v-100h-190z" />
    <glyph glyph-name="F" unicode="F" horiz-adv-x="344" 
d="M150 600v-211h142v-100h-142v-289h-110v700h291v-100h-181z" />
    <glyph glyph-name="G" unicode="G" horiz-adv-x="390" 
d="M205 290v100h154v-222c0 -56.667 -14 -100.167 -42 -130.5s-68.667 -45.5 -122 -45.5s-94 15.167 -122 45.5s-42 73.833 -42 130.5v364c0 56.667 14 100.167 42 130.5s68.667 45.5 122 45.5s94 -15.167 122 -45.5s42 -73.833 42 -130.5v-68h-104v75c0 46 -19 69 -57 69
s-57 -23 -57 -69v-378c0 -45.333 19 -68 57 -68s57 22.667 57 68v129h-50z" />
    <glyph glyph-name="H" unicode="H" horiz-adv-x="427" 
d="M150 300v-300h-110v700h110v-300h125v300h112v-700h-112v300h-125z" />
    <glyph glyph-name="I" unicode="I" horiz-adv-x="190" 
d="M40 0v700h110v-700h-110z" />
    <glyph glyph-name="J" unicode="J" horiz-adv-x="256" 
d="M10 0v100c8 -0.666992 20.667 -1 38 -1c42 0 63 22.333 63 67v534h110v-526c0 -117.333 -52.667 -176 -158 -176c-23.333 0 -41 0.666992 -53 2z" />
    <glyph glyph-name="K" unicode="K" horiz-adv-x="414" 
d="M291 0l-107 279l-34 -64v-215h-110v700h110v-305l144 305h110l-153 -312l153 -388h-113z" />
    <glyph glyph-name="L" unicode="L" horiz-adv-x="339" 
d="M40 0v700h110v-600h181v-100h-291z" />
    <glyph glyph-name="M" unicode="M" horiz-adv-x="541" 
d="M192 700l81 -497l75 497h153v-700h-104v502l-76 -502h-104l-82 495v-495h-96v700h153z" />
    <glyph glyph-name="N" unicode="N" horiz-adv-x="427" 
d="M275 0l-137 507v-507h-99v700h138l113 -419v419h98v-700h-113z" />
    <glyph glyph-name="O" unicode="O" 
d="M141 539v-378c0 -46 19 -69 57 -69s57 23 57 69v378c0 46 -19 69 -57 69s-57 -23 -57 -69zM31 168v364c0 56 14.333 99.333 43 130s70 46 124 46s95.333 -15.333 124 -46s43 -74 43 -130v-364c0 -56 -14.333 -99.333 -43 -130s-70 -46 -124 -46s-95.333 15.333 -124 46
s-43 74 -43 130z" />
    <glyph glyph-name="P" unicode="P" horiz-adv-x="382" 
d="M202 700c109.333 0 164 -57.667 164 -173v-91c0 -115.333 -54.667 -173 -164 -173h-52v-263h-110v700h162zM202 600h-52v-237h52c18 0 31.5 5 40.5 15s13.5 27 13.5 51v105c0 24 -4.5 41 -13.5 51s-22.5 15 -40.5 15z" />
    <glyph glyph-name="Q" unicode="Q" 
d="M31 168v364c0 56 14.333 99.333 43 130s70 46 124 46s95.333 -15.333 124 -46s43 -74 43 -130v-364c0 -39.333 -7 -72 -21 -98c4 -10 14.333 -15 31 -15h10v-98h-15c-47.333 0 -79 16 -95 48c-24 -8.66699 -49.667 -13 -77 -13c-54 0 -95.333 15.333 -124 46
s-43 74 -43 130zM141 539v-378c0 -46 19 -69 57 -69s57 23 57 69v378c0 46 -19 69 -57 69s-57 -23 -57 -69z" />
    <glyph glyph-name="R" unicode="R" horiz-adv-x="402" 
d="M382 0l-112.001 0.000976562c-6.66699 20 -10 48.667 -10 86v110c0 32 -5.66699 54.833 -17 68.5s-29.666 20.5 -54.999 20.5h-38v-285h-110v700h166c56.667 0 98 -13.167 124 -39.5s39 -66.833 39 -121.5v-55c0 -72 -24 -119.333 -72 -142
c48.667 -20.667 73 -70.334 73 -149.001v-108c0 -38 4 -66.333 12 -85zM202.999 600.001h-53v-215h43c22 0 38.5 5.66699 49.5 17s16.5 30.333 16.5 57v69c0 48 -18.667 72 -56 72z" />
    <glyph glyph-name="S" unicode="S" horiz-adv-x="374" 
d="M26 532c0 56.667 13.6689 100.167 41.002 130.5s67.666 45.5 120.999 45.5s93.666 -15.167 120.999 -45.5s41 -73.833 41 -130.5v-22h-104v29c0 46 -18.333 69 -55 69s-55 -23 -55 -69c0 -26 7.33301 -50.5 22 -73.5s32.5 -43.833 53.5 -62.5l63.5 -58.5
c21.333 -20.333 39.333 -45.666 54 -75.999s22 -63.833 22 -100.5c0 -56.667 -14 -100.167 -42 -130.5s-68.667 -45.5 -122 -45.5s-94 15.167 -122 45.5s-42 73.833 -42 130.5v43h104v-50c0 -45.333 19 -68 57 -68s57 22.667 57 68c0 26 -7.33301 50.5 -22 73.5
s-32.5 43.833 -53.5 62.5l-63.5 58.5c-21.333 20.333 -39.333 45.666 -54 75.999s-22 63.833 -22 100.5z" />
    <glyph glyph-name="T" unicode="T" horiz-adv-x="356" 
d="M8 600v100h340v-100h-115v-600h-110v600h-115z" />
    <glyph glyph-name="U" unicode="U" horiz-adv-x="398" 
d="M35 700h110v-540c0 -45.333 19 -68 57 -68s57 22.667 57 68v540h104v-533c0 -56.667 -14 -100.167 -42 -130.5s-68.667 -45.5 -122 -45.5s-94 15.167 -122 45.5s-42 73.833 -42 130.5v533z" />
    <glyph glyph-name="V" unicode="V" horiz-adv-x="402" 
d="M122 700l84 -571l84 571h101l-108 -700h-164l-108 700h111z" />
    <glyph glyph-name="W" unicode="W" horiz-adv-x="563" 
d="M324 0l-40 373l-40 -373h-151l-78 700h107l59 -552l53 552h106l55 -556l57 556h96l-78 -700h-146z" />
    <glyph glyph-name="X" unicode="X" horiz-adv-x="430" 
d="M305 700h102l-115 -340l123 -360h-116l-90 277l-91 -277h-103l123 360l-115 340h114l83 -258z" />
    <glyph glyph-name="Y" unicode="Y" 
d="M143 0v232l-139 468h115l84 -319l84 319h105l-139 -468v-232h-110z" />
    <glyph glyph-name="Z" unicode="Z" horiz-adv-x="370" 
d="M33 700h312v-98l-209 -502h209v-100h-322v98l209 502h-199v100z" />
    <glyph glyph-name="bracketleft" unicode="[" horiz-adv-x="251" 
d="M47 0v700h182v-90h-72v-520h72v-90h-182z" />
    <glyph glyph-name="backslash" unicode="\" horiz-adv-x="381" 
d="M100 700l276 -700h-95l-276 700h95z" />
    <glyph glyph-name="bracketright" unicode="]" horiz-adv-x="251" 
d="M204 700v-700h-182v90h72v520h-72v90h182z" />
    <glyph glyph-name="asciicircum" unicode="^" 
d="M20 390l139 310h78l139 -310h-88l-90 210l-90 -210h-88z" />
    <glyph glyph-name="underscore" unicode="_" horiz-adv-x="500" 
d="M0 -90v80h500v-80h-500z" />
    <glyph glyph-name="grave" unicode="`" horiz-adv-x="250" 
d="M44 848h113l68 -111h-79z" />
    <glyph glyph-name="a" unicode="a" horiz-adv-x="407" 
d="M284 700l112 -700h-111l-19 127h-135l-19 -127h-101l112 700h161zM198 576l-53 -354h106z" />
    <glyph glyph-name="b" unicode="b" horiz-adv-x="406" 
d="M206 700c56.667 0 98 -13.167 124 -39.5s39 -66.833 39 -121.5v-25c0 -72 -23.667 -119 -71 -141c54.667 -21.333 82 -71.333 82 -150v-57c0 -54 -14.167 -95.167 -42.5 -123.5s-69.833 -42.5 -124.5 -42.5h-173v700h166zM199 315l-48.999 0.000976562v-215h63
c19.333 0 33.666 5.16699 42.999 15.5s14 28.166 14 53.499v61c0 32 -5.5 54.167 -16.5 66.5s-29.167 18.5 -54.5 18.5zM203.001 600.001h-53v-185h43c22 0 38.5 5.66699 49.5 17s16.5 30.333 16.5 57v39c0 48 -18.667 72 -56 72z" />
    <glyph glyph-name="c" unicode="c" horiz-adv-x="386" 
d="M255 261h104v-93c0 -56.667 -14 -100.167 -42 -130.5s-68.667 -45.5 -122 -45.5s-94 15.167 -122 45.5s-42 73.833 -42 130.5v364c0 56.667 14 100.167 42 130.5s68.667 45.5 122 45.5s94 -15.167 122 -45.5s42 -73.833 42 -130.5v-68h-104v75c0 46 -19 69 -57 69
s-57 -23 -57 -69v-378c0 -45.333 19 -68 57 -68s57 22.667 57 68v100z" />
    <glyph glyph-name="d" unicode="d" horiz-adv-x="408" 
d="M40 0v700h174c109.333 0 164 -57.667 164 -173v-354c0 -115.333 -54.667 -173 -164 -173h-174zM212 600h-62v-500h62c37.333 0 56 22.667 56 68v364c0 45.333 -18.667 68 -56 68z" />
    <glyph glyph-name="e" unicode="e" horiz-adv-x="368" 
d="M150 600v-195h151v-100h-151v-205h190v-100h-300v700h300v-100h-190z" />
    <glyph glyph-name="f" unicode="f" horiz-adv-x="344" 
d="M150 600v-211h142v-100h-142v-289h-110v700h291v-100h-181z" />
    <glyph glyph-name="g" unicode="g" horiz-adv-x="390" 
d="M205 290v100h154v-222c0 -56.667 -14 -100.167 -42 -130.5s-68.667 -45.5 -122 -45.5s-94 15.167 -122 45.5s-42 73.833 -42 130.5v364c0 56.667 14 100.167 42 130.5s68.667 45.5 122 45.5s94 -15.167 122 -45.5s42 -73.833 42 -130.5v-68h-104v75c0 46 -19 69 -57 69
s-57 -23 -57 -69v-378c0 -45.333 19 -68 57 -68s57 22.667 57 68v129h-50z" />
    <glyph glyph-name="h" unicode="h" horiz-adv-x="427" 
d="M150 300v-300h-110v700h110v-300h125v300h112v-700h-112v300h-125z" />
    <glyph glyph-name="i" unicode="i" horiz-adv-x="190" 
d="M40 0v700h110v-700h-110z" />
    <glyph glyph-name="j" unicode="j" horiz-adv-x="256" 
d="M10 0v100c8 -0.666992 20.667 -1 38 -1c42 0 63 22.333 63 67v534h110v-526c0 -117.333 -52.667 -176 -158 -176c-23.333 0 -41 0.666992 -53 2z" />
    <glyph glyph-name="k" unicode="k" horiz-adv-x="414" 
d="M291 0l-107 279l-34 -64v-215h-110v700h110v-305l144 305h110l-153 -312l153 -388h-113z" />
    <glyph glyph-name="l" unicode="l" horiz-adv-x="339" 
d="M40 0v700h110v-600h181v-100h-291z" />
    <glyph glyph-name="m" unicode="m" horiz-adv-x="541" 
d="M192 700l81 -497l75 497h153v-700h-104v502l-76 -502h-104l-82 495v-495h-96v700h153z" />
    <glyph glyph-name="n" unicode="n" horiz-adv-x="427" 
d="M275 0l-137 507v-507h-99v700h138l113 -419v419h98v-700h-113z" />
    <glyph glyph-name="o" unicode="o" 
d="M141 539v-378c0 -46 19 -69 57 -69s57 23 57 69v378c0 46 -19 69 -57 69s-57 -23 -57 -69zM31 168v364c0 56 14.333 99.333 43 130s70 46 124 46s95.333 -15.333 124 -46s43 -74 43 -130v-364c0 -56 -14.333 -99.333 -43 -130s-70 -46 -124 -46s-95.333 15.333 -124 46
s-43 74 -43 130z" />
    <glyph glyph-name="p" unicode="p" horiz-adv-x="377" 
d="M202 700c109.333 0 164 -57.667 164 -173v-91c0 -115.333 -54.667 -173 -164 -173h-52v-263h-110v700h162zM202 600h-52v-237h52c18 0 31.5 5 40.5 15s13.5 27 13.5 51v105c0 24 -4.5 41 -13.5 51s-22.5 15 -40.5 15z" />
    <glyph glyph-name="q" unicode="q" 
d="M31 168v364c0 56 14.333 99.333 43 130s70 46 124 46s95.333 -15.333 124 -46s43 -74 43 -130v-364c0 -39.333 -7 -72 -21 -98c4 -10 14.333 -15 31 -15h10v-98h-15c-47.333 0 -79 16 -95 48c-24 -8.66699 -49.667 -13 -77 -13c-54 0 -95.333 15.333 -124 46
s-43 74 -43 130zM141 539v-378c0 -46 19 -69 57 -69s57 23 57 69v378c0 46 -19 69 -57 69s-57 -23 -57 -69z" />
    <glyph glyph-name="r" unicode="r" horiz-adv-x="402" 
d="M382 0l-112.001 0.000976562c-6.66699 20 -10 48.667 -10 86v110c0 32 -5.66699 54.833 -17 68.5s-29.666 20.5 -54.999 20.5h-38v-285h-110v700h166c56.667 0 98 -13.167 124 -39.5s39 -66.833 39 -121.5v-55c0 -72 -24 -119.333 -72 -142
c48.667 -20.667 73 -70.334 73 -149.001v-108c0 -38 4 -66.333 12 -85zM202.999 600.001h-53v-215h43c22 0 38.5 5.66699 49.5 17s16.5 30.333 16.5 57v69c0 48 -18.667 72 -56 72z" />
    <glyph glyph-name="s" unicode="s" horiz-adv-x="374" 
d="M26 532c0 56.667 13.6689 100.167 41.002 130.5s67.666 45.5 120.999 45.5s93.666 -15.167 120.999 -45.5s41 -73.833 41 -130.5v-22h-104v29c0 46 -18.333 69 -55 69s-55 -23 -55 -69c0 -26 7.33301 -50.5 22 -73.5s32.5 -43.833 53.5 -62.5l63.5 -58.5
c21.333 -20.333 39.333 -45.666 54 -75.999s22 -63.833 22 -100.5c0 -56.667 -14 -100.167 -42 -130.5s-68.667 -45.5 -122 -45.5s-94 15.167 -122 45.5s-42 73.833 -42 130.5v43h104v-50c0 -45.333 19 -68 57 -68s57 22.667 57 68c0 26 -7.33301 50.5 -22 73.5
s-32.5 43.833 -53.5 62.5l-63.5 58.5c-21.333 20.333 -39.333 45.666 -54 75.999s-22 63.833 -22 100.5z" />
    <glyph glyph-name="t" unicode="t" horiz-adv-x="356" 
d="M8 600v100h340v-100h-115v-600h-110v600h-115z" />
    <glyph glyph-name="u" unicode="u" horiz-adv-x="398" 
d="M35 700h110v-540c0 -45.333 19 -68 57 -68s57 22.667 57 68v540h104v-533c0 -56.667 -14 -100.167 -42 -130.5s-68.667 -45.5 -122 -45.5s-94 15.167 -122 45.5s-42 73.833 -42 130.5v533z" />
    <glyph glyph-name="v" unicode="v" horiz-adv-x="402" 
d="M122 700l84 -571l84 571h101l-108 -700h-164l-108 700h111z" />
    <glyph glyph-name="w" unicode="w" horiz-adv-x="563" 
d="M324 0l-40 373l-40 -373h-151l-78 700h107l59 -552l53 552h106l55 -556l57 556h96l-78 -700h-146z" />
    <glyph glyph-name="x" unicode="x" horiz-adv-x="430" 
d="M305 700h102l-115 -340l123 -360h-116l-90 277l-91 -277h-103l123 360l-115 340h114l83 -258z" />
    <glyph glyph-name="y" unicode="y" 
d="M143 0v232l-139 468h115l84 -319l84 319h105l-139 -468v-232h-110z" />
    <glyph glyph-name="z" unicode="z" horiz-adv-x="370" 
d="M33 700h312v-98l-209 -502h209v-100h-322v98l209 502h-199v100z" />
    <glyph glyph-name="braceleft" unicode="{" horiz-adv-x="257" 
d="M102 350c40.667 -10.667 62.334 -40.332 65.001 -88.999l5 -100c1.33301 -26.667 6 -45.167 14 -55.5s21 -15.5 39 -15.5h16v-90h-56c-32 0 -57.833 9.33301 -77.5 28s-30.834 46.334 -33.501 83.001l-8 134c-1.33301 23.333 -5.66602 39.166 -12.999 47.499
s-21.333 12.5 -42 12.5v90c20.667 0 34.667 4.16699 42 12.5s11.666 24.166 12.999 47.499l8 134c2.66699 36.667 13.834 64.334 33.501 83.001s45.5 28 77.5 28h56v-90h-16c-18 0 -31 -5.16699 -39 -15.5s-12.667 -28.833 -14 -55.5l-5 -100
c-2.66699 -48.667 -24.334 -78.334 -65.001 -89.001z" />
    <glyph glyph-name="bar" unicode="|" horiz-adv-x="500" 
d="M210 -65v830h90v-830h-90z" />
    <glyph glyph-name="braceright" unicode="}" horiz-adv-x="257" 
d="M155 350c-40.667 10.667 -62.334 40.332 -65.001 88.999l-5 100c-1.33301 26.667 -6 45.167 -14 55.5s-21 15.5 -39 15.5h-16v90h56c32 0 57.833 -9.33301 77.5 -28s30.834 -46.334 33.501 -83.001l8 -134c1.33301 -23.333 5.66602 -39.166 12.999 -47.499
s21.333 -12.5 42 -12.5v-90c-20.667 0 -34.667 -4.16699 -42 -12.5s-11.666 -24.166 -12.999 -47.499l-8 -134c-2.66699 -36.667 -13.834 -64.334 -33.501 -83.001s-45.5 -28 -77.5 -28h-56v90h16c18 0 31 5.16699 39 15.5s12.667 28.833 14 55.5l5 100
c2.66699 48.667 24.334 78.334 65.001 89.001z" />
    <glyph glyph-name="asciitilde" unicode="~" 
d="M60 282l-52.001 50c22.667 34 43.167 57.5 61.5 70.5s37.5 19.5 57.5 19.5c18.667 0 43.834 -10.167 75.501 -30.5s54.167 -30.5 67.5 -30.5c10.667 0 20.167 3.83301 28.5 11.5s20.833 22.834 37.5 45.501l52 -54c-22.667 -33.333 -43 -56 -61 -68s-37.333 -18 -58 -18
c-18.667 0 -43.834 10.167 -75.501 30.5s-54.167 30.5 -67.5 30.5c-11.333 0 -21.166 -3.83301 -29.499 -11.5s-20.5 -22.834 -36.5 -45.501z" />
    <glyph glyph-name="uni00A0" unicode="&#xa0;" horiz-adv-x="155" 
 />
    <glyph glyph-name="exclamdown" unicode="&#xa1;" horiz-adv-x="190" 
d="M54 545h82l14 -253v-292h-110v292zM148 594h-106v106h106v-106z" />
    <glyph glyph-name="cent" unicode="&#xa2;" 
d="M153 -15v51.999c-78 16 -117 73 -117 171v284c0 96.667 39 153.667 117 171v52h90v-51c80.667 -16 121 -73.333 121 -172v-48h-104v55c0 46 -19 69 -57 69s-57 -23 -57 -69v-298c0 -45.333 19 -68 57 -68s57 22.667 57 68v80h104v-73
c0 -99.333 -40.333 -156.666 -121 -171.999v-51h-90z" />
    <glyph glyph-name="sterling" unicode="&#xa3;" 
d="M44 210l0.00488281 85.001h67c-4.66699 12.667 -13.834 32.667 -27.501 60s-24.334 54.5 -32.001 81.5s-11.5 58.833 -11.5 95.5c0 56.667 13.667 100.167 41 130.5s67.666 45.5 120.999 45.5s93.666 -15.167 120.999 -45.5s41 -73.833 41 -130.5v-69h-104v76
c0 46 -18.333 69 -55 69s-55 -23 -55 -69c0 -36.667 4 -69.167 12 -97.5s18.167 -55.5 30.5 -81.5s20.5 -47.667 24.5 -65h121v-85h-114c-4.66699 -47.333 -23.334 -84 -56.001 -110h189v-100h-327v96c26.667 0 49 10.167 67 30.5s27.333 48.166 28 83.499h-81z" />
    <glyph glyph-name="currency" unicode="&#xa4;" 
d="M134 350c0 -17.333 6.33301 -32.333 19 -45s27.667 -19 45 -19s32.333 6.33301 45 19s19 27.667 19 45s-6.33301 32.333 -19 45s-27.667 19 -45 19s-32.333 -6.33301 -45 -19s-19 -27.667 -19 -45zM32 227l55 55c-12 20 -18 42.667 -18 68s6 47.666 18 66.999l-55 56
l43 43l56 -56c20 12.667 42.333 19 67 19c23.333 0 45.666 -6.33301 66.999 -19l56 56l43 -43l-56 -56c12.667 -21.333 19 -43.666 19 -66.999c0 -24.667 -6.33301 -47 -19 -67l56 -56l-43 -43l-56 55c-19.333 -12 -41.666 -18 -66.999 -18s-48 6 -68 18l-55 -55z" />
    <glyph glyph-name="yen" unicode="&#xa5;" 
d="M284 700h105l-128 -429h83v-55h-91v-45h91v-55h-91v-116h-110v116h-91v55h91v45h-91v55h82l-127 429h115l81 -309z" />
    <glyph glyph-name="brokenbar" unicode="&#xa6;" horiz-adv-x="500" 
d="M210 410v355h90v-355h-90zM210 -65v355h90v-355h-90z" />
    <glyph glyph-name="section" unicode="&#xa7;" 
d="M35 314c0 55.333 23 96 69 122c-46 30 -69 73.333 -69 130c0 42 14 76.167 42 102.5s68 39.5 120 39.5s92 -12.333 120 -37s42 -57.667 42 -99v-36h-104v21c0 18 -4.83301 32.5 -14.5 43.5s-23.167 16.5 -40.5 16.5c-36.667 0 -55 -18.667 -55 -56
c0 -14.667 7.33301 -27.5 22 -38.5s32.5 -21 53.5 -30s42.167 -19.5 63.5 -31.5s39.333 -29.833 54 -53.5s22 -52.5 22 -86.5c0 -55.333 -23.333 -96.333 -70 -123c46.667 -28.667 70 -71.667 70 -129c0 -42 -14 -76.167 -42 -102.5s-68 -39.5 -120 -39.5
s-92 12.333 -120 37s-42 57.667 -42 99v50h104v-35c0 -18 4.83301 -32.5 14.5 -43.5s23.167 -16.5 40.5 -16.5c36.667 0 55 18.667 55 56c0 14.667 -7.33301 27.5 -22 38.5s-32.667 21 -54 30s-42.5 19.5 -63.5 31.5s-38.833 29.833 -53.5 53.5s-22 52.5 -22 86.5zM140 318
c0 -18.667 5.16699 -33.666 15.5 -44.999s25.5 -22 45.5 -32c16 2.66699 29 11.167 39 25.5s15 31.166 15 50.499c0 30.667 -20.667 56 -62 76c-16 -2.66699 -28.833 -11 -38.5 -25s-14.5 -30.667 -14.5 -50z" />
    <glyph glyph-name="dieresis" unicode="&#xa8;" horiz-adv-x="250" 
d="M1 833h96v-96h-96v96zM153 833h96v-96h-96v96z" />
    <glyph glyph-name="copyright" unicode="&#xa9;" horiz-adv-x="736" 
d="M405 308h72v-56c0 -81.333 -37.667 -122 -113 -122s-113 40.667 -113 122v194c0 82.667 37.667 124 113 124s113 -41.333 113 -124v-36h-72v42c0 32 -13 48 -39 48s-39 -16 -39 -48v-204c0 -31.333 13 -47 39 -47s39 15.667 39 47v60zM20 350
c0 103.333 33.167 188.833 99.5 256.5s149.166 101.5 248.499 101.5s182.166 -33.833 248.499 -101.5s99.5 -153.167 99.5 -256.5s-33.167 -188.833 -99.5 -256.5s-149.166 -101.5 -248.499 -101.5s-182.166 33.833 -248.499 101.5s-99.5 153.167 -99.5 256.5zM92 350
c0 -83.333 26.167 -152.166 78.5 -206.499s118.166 -81.5 197.499 -81.5s145.166 27.167 197.499 81.5s78.5 123.166 78.5 206.499s-26.167 152.166 -78.5 206.499s-118.166 81.5 -197.499 81.5s-145.166 -27.167 -197.499 -81.5s-78.5 -123.166 -78.5 -206.499z" />
    <glyph glyph-name="ordfeminine" unicode="&#xaa;" horiz-adv-x="278" 
d="M30 429v3.99902c0 44.667 12.333 76.334 37 95.001s59.667 28.667 105 30v46c0 24.667 -9.33301 37 -28 37c-22.667 0 -34 -14.333 -34 -43v-23h-66v19c0 74 34.333 111 103 111c63.333 0 95 -37 95 -111v-261h-59l-4 48c-11.333 -35.333 -35 -53 -71 -53
c-52 0 -78 33.667 -78 101zM30 286.999h212v-69h-212v69zM100 443.999v-9c0 -28.667 12 -43 36 -43c22 0 34 12 36 36v78c-48 -2 -72 -22.667 -72 -62z" />
    <glyph glyph-name="guillemotleft" unicode="&#xab;" horiz-adv-x="355" 
d="M78 608h99l-61 -257l61 -273h-99l-62 273zM240 608h99l-61 -257l61 -273h-99l-62 273z" />
    <glyph glyph-name="logicalnot" unicode="&#xac;" 
d="M25 389h346v-215h-78v137h-268v78z" />
    <glyph glyph-name="uni00AD" unicode="&#xad;" horiz-adv-x="270" 
d="M35 300v100h200v-100h-200z" />
    <glyph glyph-name="registered" unicode="&#xae;" horiz-adv-x="736" 
d="M20 350c0 103.333 33.167 188.833 99.5 256.5s149.166 101.5 248.499 101.5s182.166 -33.833 248.499 -101.5s99.5 -153.167 99.5 -256.5s-33.167 -188.833 -99.5 -256.5s-149.166 -101.5 -248.499 -101.5s-182.166 33.833 -248.499 101.5s-99.5 153.167 -99.5 256.5z
M92 350c0 -83.333 26.167 -152.166 78.5 -206.499s118.166 -81.5 197.499 -81.5s145.166 27.167 197.499 81.5s78.5 123.166 78.5 206.499s-26.167 152.166 -78.5 206.499s-118.166 81.5 -197.499 81.5s-145.166 -27.167 -197.499 -81.5s-78.5 -123.166 -78.5 -206.499z
M496 136h-78c-4.66699 12 -7 32 -7 60v46c0 22.667 -4 38.667 -12 48s-21 14 -39 14h-26v-168h-76v428h116c75.333 0 113 -37.333 113 -112v-9c0 -50.667 -17.333 -83.667 -52 -99c34.667 -14 52 -48.333 52 -103v-46c0 -26 3 -45.667 9 -59zM370 494h-36v-120h31
c30.667 0 46 17 46 51v18c0 34 -13.667 51 -41 51z" />
    <glyph glyph-name="macron" unicode="&#xaf;" horiz-adv-x="250" 
d="M10 819h230v-78h-230v78z" />
    <glyph glyph-name="degree" unicode="&#xb0;" horiz-adv-x="228" 
d="M15 609c0 27.333 9.66699 50.666 29 69.999s42.666 29 69.999 29s50.666 -9.66699 69.999 -29s29 -42.666 29 -69.999s-9.66699 -50.666 -29 -69.999s-42.666 -29 -69.999 -29s-50.666 9.66699 -69.999 29s-29 42.666 -29 69.999zM65 609
c0 -13.333 4.83301 -24.833 14.5 -34.5s21.167 -14.5 34.5 -14.5s24.833 4.83301 34.5 14.5s14.5 21.167 14.5 34.5s-4.83301 24.833 -14.5 34.5s-21.167 14.5 -34.5 14.5s-24.833 -4.83301 -34.5 -14.5s-14.5 -21.167 -14.5 -34.5z" />
    <glyph glyph-name="plusminus" unicode="&#xb1;" 
d="M237 252h124v-78h-326v78h124v80h-124v78h124v114h78v-114h124v-78h-124v-80z" />
    <glyph glyph-name="twosuperior" unicode="&#xb2;" horiz-adv-x="280" 
d="M180 688c0 33.333 -11.999 50.002 -35.999 50.002s-36 -14.667 -36 -44v-47h-66v43c0 74 34.667 111 104 111s104 -37 104 -111c0 -32.667 -7.83301 -63.834 -23.5 -93.501s-32.667 -53.167 -51 -70.5s-34.333 -36 -48 -56s-18.834 -38.667 -15.501 -56h132v-63h-202v54
c0 24 4.66699 46.167 14 66.5s20.833 38 34.5 53l41 45c13.667 15 25.167 32.667 34.5 53s14 42.166 14 65.499z" />
    <glyph glyph-name="threesuperior" unicode="&#xb3;" horiz-adv-x="280" 
d="M174 460v33.999c0 20.667 -3.5 35.167 -10.5 43.5s-18.5 12.5 -34.5 12.5h-24v63h27c28 0 42 16 42 48v25c0 34 -12 51 -36 51s-36 -14.667 -36 -44v-28h-66v23c0 74.667 34.667 112 104 112s104 -37.333 104 -112v-11c0 -47.333 -16.333 -77.666 -49 -90.999
c32.667 -14 49 -45 49 -93v-35c0 -74.667 -34.667 -112 -104 -112s-104 37.333 -104 112v36h66v-41c0 -29.333 12 -44 36 -44s36 17 36 51z" />
    <glyph glyph-name="acute" unicode="&#xb4;" horiz-adv-x="250" 
d="M95 848h108l-102 -111h-74z" />
    <glyph glyph-name="uni00B5" unicode="&#xb5;" 
d="M141 500v-339c0 -46 19 -69 57 -69s57 23 57 69v339h110v-500h-100v52c-20.667 -40 -54 -60 -100 -60c-6.66699 0 -14.667 0.666992 -24 2v-87h-110v593h110z" />
    <glyph glyph-name="paragraph" unicode="&#xb6;" 
d="M356 700v-764.999h-80v685h-54v-685h-80l2 330c-41.333 0 -73.333 15.667 -96 47s-34 72.666 -34 123.999v91c0 115.333 54.667 173 164 173h178z" />
    <glyph glyph-name="periodcentered" unicode="&#xb7;" horiz-adv-x="186" 
d="M40 403h106v-106h-106v106z" />
    <glyph glyph-name="cedilla" unicode="&#xb8;" horiz-adv-x="250" 
d="M26 -89v10h74v-8c0 -13.333 7.33301 -20 22 -20c16.667 0 25 8 25 24c0 17.333 -12 26 -36 26h-10v71h48v-53c25.333 0 44 -3.5 56 -10.5s18 -19.167 18 -36.5c0 -24.667 -8.33301 -41 -25 -49s-42 -12 -76 -12c-64 0 -96 19.333 -96 58z" />
    <glyph glyph-name="onesuperior" unicode="&#xb9;" horiz-adv-x="200" 
d="M25 690l0.000976562 49c24 0 41.167 4.66699 51.5 14s19.166 23.333 26.499 42h46v-444h-70v339h-54z" />
    <glyph glyph-name="ordmasculine" unicode="&#xba;" horiz-adv-x="280" 
d="M104 598v-163c0 -28.667 12 -43 36 -43s36 14.333 36 43v163c0 28.667 -12 43 -36 43s-36 -14.333 -36 -43zM34 439v155c0 35.333 9.16699 62.666 27.5 81.999s44.5 29 78.5 29s60.167 -9.66699 78.5 -29s27.5 -46.666 27.5 -81.999v-155
c0 -35.333 -9.16699 -62.666 -27.5 -81.999s-44.5 -29 -78.5 -29s-60.167 9.66699 -78.5 29s-27.5 46.666 -27.5 81.999zM34 287h212v-69h-212v69z" />
    <glyph glyph-name="guillemotright" unicode="&#xbb;" horiz-adv-x="355" 
d="M178 608h99l62 -257l-62 -273h-99l61 273zM16 608h99l62 -257l-62 -273h-99l61 273z" />
    <glyph glyph-name="onequarter" unicode="&#xbc;" horiz-adv-x="627" 
d="M65 595l0.000976562 49c24 0 41.167 4.66699 51.5 14s19.166 23.333 26.499 42h46v-444h-70v339h-54zM160.001 0l276 700h65l-276 -700h-65zM371.001 80v64l127 300h76v-300h33v-64h-33v-80h-69v80h-134zM434.001 144h71v164z" />
    <glyph glyph-name="onehalf" unicode="&#xbd;" horiz-adv-x="627" 
d="M65 595l0.000976562 49c24 0 41.167 4.66699 51.5 14s19.166 23.333 26.499 42h46v-444h-70v339h-54zM130.001 0l276 700h65l-276 -700h-65zM527.001 337c0 33.333 -11.999 50.002 -35.999 50.002s-36 -14.667 -36 -44v-47h-66v43c0 74 34.667 111 104 111
s104 -37 104 -111c0 -32.667 -7.83301 -63.834 -23.5 -93.501s-32.667 -53.167 -51 -70.5s-34.333 -36 -48 -56s-18.834 -38.667 -15.501 -56h132v-63h-202v54c0 24 4.66699 46.167 14 66.5s20.833 38 34.5 53l41 45c13.667 15 25.167 32.667 34.5 53s14 42.166 14 65.499z
" />
    <glyph glyph-name="threequarters" unicode="&#xbe;" horiz-adv-x="627" 
d="M174 365v33.999c0 20.667 -3.5 35.167 -10.5 43.5s-18.5 12.5 -34.5 12.5h-24v63h27c28 0 42 16 42 48v25c0 34 -12 51 -36 51s-36 -14.667 -36 -44v-28h-66v23c0 74.667 34.667 112 104 112s104 -37.333 104 -112v-11c0 -47.333 -16.333 -77.666 -49 -90.999
c32.667 -14 49 -45 49 -93v-35c0 -74.667 -34.667 -112 -104 -112s-104 37.333 -104 112v36h66v-41c0 -29.333 12 -44 36 -44s36 17 36 51zM170 -0.000976562l276 700h65l-276 -700h-65zM371 79.999v64l127 300h76v-300h33v-64h-33v-80h-69v80h-134zM434 143.999h71v164z
" />
    <glyph glyph-name="questiondown" unicode="&#xbf;" horiz-adv-x="360" 
d="M142 545h98c4 -12 6 -26.333 6 -43c0 -34 -6.33301 -65.167 -19 -93.5s-26.334 -51.333 -41.001 -69s-28.334 -42.167 -41.001 -73.5s-19 -66.333 -19 -105c0 -46 18.333 -69 55 -69s55 23 55 69v76h104v-69c0 -56.667 -13.667 -100.167 -41 -130.5
s-67.666 -45.5 -120.999 -45.5s-93.666 15.167 -120.999 45.5s-41 73.833 -41 130.5c0 40.667 6.83301 77.834 20.5 111.501s28.5 59.667 44.5 78s30.833 40.666 44.5 66.999s20.5 53.5 20.5 81.5c0 14.667 -1.33301 27.667 -4 39zM245 594h-106v106h106v-106z" />
    <glyph glyph-name="Agrave" unicode="&#xc0;" horiz-adv-x="407" 
d="M284 700l112 -700h-111l-19 127h-135l-19 -127h-101l112 700h161zM198 576l-53 -354h106zM83 848h113l68 -111h-79z" />
    <glyph glyph-name="Aacute" unicode="&#xc1;" horiz-adv-x="407" 
d="M284 700l112 -700h-111l-19 127h-135l-19 -127h-101l112 700h161zM198 576l-53 -354h106zM213 848h108l-102 -111h-74z" />
    <glyph glyph-name="Acircumflex" unicode="&#xc2;" horiz-adv-x="407" 
d="M284 700l112 -700h-111l-19 127h-135l-19 -127h-101l112 700h161zM198 576l-53 -354h106zM159 737h-94l89 111h99l89 -111h-94l-45 55z" />
    <glyph glyph-name="Atilde" unicode="&#xc3;" horiz-adv-x="407" 
d="M284 700l112 -700h-111l-19 127h-135l-19 -127h-101l112 700h161zM198 576l-53 -354h106zM243 813c19.333 0 33.666 9.66699 42.999 29l53 -37c-16.667 -45.333 -45 -68 -85 -68c-14.667 0 -31 4.16699 -49 12.5s-31.667 12.5 -41 12.5
c-19.333 0 -33.666 -9.66699 -42.999 -29l-53 37c16.667 45.333 45 68 85 68c15.333 0 32 -4.16699 50 -12.5s31.333 -12.5 40 -12.5z" />
    <glyph glyph-name="Adieresis" unicode="&#xc4;" horiz-adv-x="407" 
d="M284 700l112 -700h-111l-19 127h-135l-19 -127h-101l112 700h161zM198 576l-53 -354h106zM79 833h96v-96h-96v96zM231 833h96v-96h-96v96z" />
    <glyph glyph-name="Aring" unicode="&#xc5;" horiz-adv-x="407" 
d="M284 700l112 -700h-111l-19 127h-135l-19 -127h-101l112 700h161zM198 576l-53 -354h106zM123 814c0 22.667 7.66699 41.667 23 57s34.333 23 57 23s41.667 -7.66699 57 -23s23 -34.333 23 -57s-7.66699 -41.667 -23 -57s-34.333 -23 -57 -23s-41.667 7.66699 -57 23
s-23 34.333 -23 57zM173 814c0 -8.66699 2.83301 -15.834 8.5 -21.501s12.834 -8.5 21.501 -8.5s15.834 2.83301 21.501 8.5s8.5 12.834 8.5 21.501s-2.83301 15.834 -8.5 21.501s-12.834 8.5 -21.501 8.5s-15.834 -2.83301 -21.501 -8.5s-8.5 -12.834 -8.5 -21.501z" />
    <glyph glyph-name="AE" unicode="&#xc6;" horiz-adv-x="580" 
d="M252 0v127h-111l-32 -127h-105l187 700h361v-100h-190v-195h151v-100h-151v-205h190v-100h-300zM166 222h86v337z" />
    <glyph glyph-name="Ccedilla" unicode="&#xc7;" horiz-adv-x="386" 
d="M255 261h104v-93c0 -52 -12.167 -93.167 -36.5 -123.5s-59.5 -47.5 -105.5 -51.5v-32c25.333 0 44 -3.5 56 -10.5s18 -19.167 18 -36.5c0 -24.667 -8.33301 -41 -25 -49s-42 -12 -76 -12c-64 0 -96 19.333 -96 58v10h74v-8c0 -13.333 7.33301 -20 22 -20
c16.667 0 25 8 25 24c0 17.333 -12 26 -36 26h-10v51c-92 9.33301 -138 67.333 -138 174v364c0 56.667 14 100.167 42 130.5s68.667 45.5 122 45.5s94 -15.167 122 -45.5s42 -73.833 42 -130.5v-68h-104v75c0 46 -19 69 -57 69s-57 -23 -57 -69v-378
c0 -45.333 19 -68 57 -68s57 22.667 57 68v100z" />
    <glyph glyph-name="Egrave" unicode="&#xc8;" horiz-adv-x="368" 
d="M150 600v-195h151v-100h-151v-205h190v-100h-300v700h300v-100h-190zM68 848h113l68 -111h-79z" />
    <glyph glyph-name="Eacute" unicode="&#xc9;" horiz-adv-x="368" 
d="M150 600v-195h151v-100h-151v-205h190v-100h-300v700h300v-100h-190zM199 848h108l-102 -111h-74z" />
    <glyph glyph-name="Ecircumflex" unicode="&#xca;" horiz-adv-x="368" 
d="M150 600v-195h151v-100h-151v-205h190v-100h-300v700h300v-100h-190zM144 737h-94l89 111h99l89 -111h-94l-45 55z" />
    <glyph glyph-name="Edieresis" unicode="&#xcb;" horiz-adv-x="368" 
d="M150 600v-195h151v-100h-151v-205h190v-100h-300v700h300v-100h-190zM65 833h96v-96h-96v96zM217 833h96v-96h-96v96z" />
    <glyph glyph-name="Igrave" unicode="&#xcc;" horiz-adv-x="190" 
d="M40 0v700h110v-700h-110zM-25 848h113l68 -111h-79z" />
    <glyph glyph-name="Iacute" unicode="&#xcd;" horiz-adv-x="190" 
d="M40 0v700h110v-700h-110zM105 848h108l-102 -111h-74z" />
    <glyph glyph-name="Icircumflex" unicode="&#xce;" horiz-adv-x="190" 
d="M40 0v700h110v-700h-110zM51 737h-94l89 111h99l89 -111h-94l-45 55z" />
    <glyph glyph-name="Idieresis" unicode="&#xcf;" horiz-adv-x="190" 
d="M40 0v700h110v-700h-110zM-29 833h96v-96h-96v96zM123 833h96v-96h-96v96z" />
    <glyph glyph-name="Eth" unicode="&#xd0;" horiz-adv-x="408" 
d="M40 0v305h-36v90h36v305h174c109.333 0 164 -57.667 164 -173v-354c0 -115.333 -54.667 -173 -164 -173h-174zM212 600h-62v-205h68v-90h-68v-205h62c37.333 0 56 22.667 56 68v364c0 45.333 -18.667 68 -56 68z" />
    <glyph glyph-name="Ntilde" unicode="&#xd1;" horiz-adv-x="427" 
d="M275 0l-137 507v-507h-99v700h138l113 -419v419h98v-700h-113zM253 813c19.333 0 33.666 9.66699 42.999 29l53 -37c-16.667 -45.333 -45 -68 -85 -68c-14.667 0 -31 4.16699 -49 12.5s-31.667 12.5 -41 12.5c-19.333 0 -33.666 -9.66699 -42.999 -29l-53 37
c16.667 45.333 45 68 85 68c15.333 0 32 -4.16699 50 -12.5s31.333 -12.5 40 -12.5z" />
    <glyph glyph-name="Ograve" unicode="&#xd2;" 
d="M141 539v-378c0 -46 19 -69 57 -69s57 23 57 69v378c0 46 -19 69 -57 69s-57 -23 -57 -69zM31 168v364c0 56 14.333 99.333 43 130s70 46 124 46s95.333 -15.333 124 -46s43 -74 43 -130v-364c0 -56 -14.333 -99.333 -43 -130s-70 -46 -124 -46s-95.333 15.333 -124 46
s-43 74 -43 130zM77 848h113l68 -111h-79z" />
    <glyph glyph-name="Oacute" unicode="&#xd3;" 
d="M141 539v-378c0 -46 19 -69 57 -69s57 23 57 69v378c0 46 -19 69 -57 69s-57 -23 -57 -69zM31 168v364c0 56 14.333 99.333 43 130s70 46 124 46s95.333 -15.333 124 -46s43 -74 43 -130v-364c0 -56 -14.333 -99.333 -43 -130s-70 -46 -124 -46s-95.333 15.333 -124 46
s-43 74 -43 130zM208 848h108l-102 -111h-74z" />
    <glyph glyph-name="Ocircumflex" unicode="&#xd4;" 
d="M141 539v-378c0 -46 19 -69 57 -69s57 23 57 69v378c0 46 -19 69 -57 69s-57 -23 -57 -69zM31 168v364c0 56 14.333 99.333 43 130s70 46 124 46s95.333 -15.333 124 -46s43 -74 43 -130v-364c0 -56 -14.333 -99.333 -43 -130s-70 -46 -124 -46s-95.333 15.333 -124 46
s-43 74 -43 130zM153 737h-94l89 111h99l89 -111h-94l-45 55z" />
    <glyph glyph-name="Otilde" unicode="&#xd5;" 
d="M141 539v-378c0 -46 19 -69 57 -69s57 23 57 69v378c0 46 -19 69 -57 69s-57 -23 -57 -69zM31 168v364c0 56 14.333 99.333 43 130s70 46 124 46s95.333 -15.333 124 -46s43 -74 43 -130v-364c0 -56 -14.333 -99.333 -43 -130s-70 -46 -124 -46s-95.333 15.333 -124 46
s-43 74 -43 130zM238 813c19.333 0 33.666 9.66699 42.999 29l53 -37c-16.667 -45.333 -45 -68 -85 -68c-15.333 0 -32 4.16699 -50 12.5s-31.333 12.5 -40 12.5c-19.333 0 -33.666 -9.66699 -42.999 -29l-53 37c16.667 45.333 45 68 85 68c14.667 0 31 -4.16699 49 -12.5
s31.667 -12.5 41 -12.5z" />
    <glyph glyph-name="Odieresis" unicode="&#xd6;" 
d="M141 539v-378c0 -46 19 -69 57 -69s57 23 57 69v378c0 46 -19 69 -57 69s-57 -23 -57 -69zM31 168v364c0 56 14.333 99.333 43 130s70 46 124 46s95.333 -15.333 124 -46s43 -74 43 -130v-364c0 -56 -14.333 -99.333 -43 -130s-70 -46 -124 -46s-95.333 15.333 -124 46
s-43 74 -43 130zM74 833h96v-96h-96v96zM226 833h96v-96h-96v96z" />
    <glyph glyph-name="multiply" unicode="&#xd7;" 
d="M92 508l106 -105l106 106l53 -53l-106 -106l106 -106l-53 -53l-106 106l-107 -106l-53 53l106 106l-105 105z" />
    <glyph glyph-name="Oslash" unicode="&#xd8;" 
d="M41 -24l24.999 69.999c-23.333 30.667 -35 71.334 -35 122.001v364c0 56 14.333 99.333 43 130s70 46 124 46c40 0 73.333 -8.66699 100 -26l20 55l37 -13l-26 -71c24 -28.667 36 -69 36 -121v-364c0 -56 -14.333 -99.333 -43 -130s-70 -46 -124 -46
c-41.333 0 -74.666 8.33301 -99.999 25l-20 -54zM140.999 538.999v-288l112 309c-4.66699 32 -23 48 -55 48c-38 0 -57 -23 -57 -69zM197.999 91.999c38 0 57 23 57 69v288l-113 -309c5.33301 -32 24 -48 56 -48z" />
    <glyph glyph-name="Ugrave" unicode="&#xd9;" horiz-adv-x="398" 
d="M35 700h110v-540c0 -45.333 19 -68 57 -68s57 22.667 57 68v540h104v-533c0 -56.667 -14 -100.167 -42 -130.5s-68.667 -45.5 -122 -45.5s-94 15.167 -122 45.5s-42 73.833 -42 130.5v533zM79 848h113l68 -111h-79z" />
    <glyph glyph-name="Uacute" unicode="&#xda;" horiz-adv-x="398" 
d="M35 700h110v-540c0 -45.333 19 -68 57 -68s57 22.667 57 68v540h104v-533c0 -56.667 -14 -100.167 -42 -130.5s-68.667 -45.5 -122 -45.5s-94 15.167 -122 45.5s-42 73.833 -42 130.5v533zM210 848h108l-102 -111h-74z" />
    <glyph glyph-name="Ucircumflex" unicode="&#xdb;" horiz-adv-x="398" 
d="M35 700h110v-540c0 -45.333 19 -68 57 -68s57 22.667 57 68v540h104v-533c0 -56.667 -14 -100.167 -42 -130.5s-68.667 -45.5 -122 -45.5s-94 15.167 -122 45.5s-42 73.833 -42 130.5v533zM156 737h-94l89 111h99l89 -111h-94l-45 55z" />
    <glyph glyph-name="Udieresis" unicode="&#xdc;" horiz-adv-x="398" 
d="M35 700h110v-540c0 -45.333 19 -68 57 -68s57 22.667 57 68v540h104v-533c0 -56.667 -14 -100.167 -42 -130.5s-68.667 -45.5 -122 -45.5s-94 15.167 -122 45.5s-42 73.833 -42 130.5v533zM77 833h96v-96h-96v96zM229 833h96v-96h-96v96z" />
    <glyph glyph-name="Yacute" unicode="&#xdd;" 
d="M143 0v232l-139 468h115l84 -319l84 319h105l-139 -468v-232h-110zM212 848h108l-102 -111h-74z" />
    <glyph glyph-name="Thorn" unicode="&#xde;" horiz-adv-x="377" 
d="M40 0v700h110v-80h52c109.333 0 164 -57.667 164 -173v-91c0 -115.333 -54.667 -173 -164 -173h-52v-183h-110zM202 520h-52v-237h52c18 0 31.5 5 40.5 15s13.5 27 13.5 51v105c0 24 -4.5 41 -13.5 51s-22.5 15 -40.5 15z" />
    <glyph glyph-name="germandbls" unicode="&#xdf;" horiz-adv-x="748" 
d="M26 532c0 56.667 13.6689 100.167 41.002 130.5s67.666 45.5 120.999 45.5s93.666 -15.167 120.999 -45.5s41 -73.833 41 -130.5v-22h-104v29c0 46 -18.333 69 -55 69s-55 -23 -55 -69c0 -26 7.33301 -50.5 22 -73.5s32.5 -43.833 53.5 -62.5l63.5 -58.5
c21.333 -20.333 39.333 -45.666 54 -75.999s22 -63.833 22 -100.5c0 -56.667 -14 -100.167 -42 -130.5s-68.667 -45.5 -122 -45.5s-94 15.167 -122 45.5s-42 73.833 -42 130.5v43h104v-50c0 -45.333 19 -68 57 -68s57 22.667 57 68c0 26 -7.33301 50.5 -22 73.5
s-32.5 43.833 -53.5 62.5l-63.5 58.5c-21.333 20.333 -39.333 45.666 -54 75.999s-22 63.833 -22 100.5zM400.002 532c0 56.667 13.6689 100.166 41.002 130.499s67.666 45.5 120.999 45.5s93.666 -15.167 120.999 -45.5s41 -73.833 41 -130.5v-22h-104v29
c0 46 -18.333 69 -55 69s-55 -23 -55 -69c0 -19.333 4 -37.666 12 -54.999s18.333 -33 31 -47s26.667 -27.833 42 -41.5s30.5 -28 45.5 -43s28.833 -31 41.5 -48s23 -37.167 31 -60.5s12 -48.666 12 -75.999c0 -56.667 -14 -100.167 -42 -130.5s-68.667 -45.5 -122 -45.5
s-94 15.167 -122 45.5s-42 73.833 -42 130.5v43h104v-50c0 -45.333 19 -68 57 -68s57 22.667 57 68c0 26 -7.33301 50.5 -22 73.5s-32.5 43.833 -53.5 62.5l-63.5 58.5c-21.333 20.333 -39.333 45.666 -54 75.999s-22 63.833 -22 100.5z" />
    <glyph glyph-name="agrave" unicode="&#xe0;" horiz-adv-x="407" 
d="M284 700l112 -700h-111l-19 127h-135l-19 -127h-101l112 700h161zM198 576l-53 -354h106zM83 848h113l68 -111h-79z" />
    <glyph glyph-name="aacute" unicode="&#xe1;" horiz-adv-x="407" 
d="M284 700l112 -700h-111l-19 127h-135l-19 -127h-101l112 700h161zM198 576l-53 -354h106zM213 848h108l-102 -111h-74z" />
    <glyph glyph-name="acircumflex" unicode="&#xe2;" horiz-adv-x="407" 
d="M284 700l112 -700h-111l-19 127h-135l-19 -127h-101l112 700h161zM198 576l-53 -354h106zM159 737h-94l89 111h99l89 -111h-94l-45 55z" />
    <glyph glyph-name="atilde" unicode="&#xe3;" horiz-adv-x="407" 
d="M284 700l112 -700h-111l-19 127h-135l-19 -127h-101l112 700h161zM198 576l-53 -354h106zM243 813c19.333 0 33.666 9.66699 42.999 29l53 -37c-16.667 -45.333 -45 -68 -85 -68c-14.667 0 -31 4.16699 -49 12.5s-31.667 12.5 -41 12.5
c-19.333 0 -33.666 -9.66699 -42.999 -29l-53 37c16.667 45.333 45 68 85 68c15.333 0 32 -4.16699 50 -12.5s31.333 -12.5 40 -12.5z" />
    <glyph glyph-name="adieresis" unicode="&#xe4;" horiz-adv-x="407" 
d="M284 700l112 -700h-111l-19 127h-135l-19 -127h-101l112 700h161zM198 576l-53 -354h106zM79 833h96v-96h-96v96zM231 833h96v-96h-96v96z" />
    <glyph glyph-name="aring" unicode="&#xe5;" horiz-adv-x="407" 
d="M284 700l112 -700h-111l-19 127h-135l-19 -127h-101l112 700h161zM198 576l-53 -354h106zM123 814c0 22.667 7.66699 41.667 23 57s34.333 23 57 23s41.667 -7.66699 57 -23s23 -34.333 23 -57s-7.66699 -41.667 -23 -57s-34.333 -23 -57 -23s-41.667 7.66699 -57 23
s-23 34.333 -23 57zM173 814c0 -8.66699 2.83301 -15.834 8.5 -21.501s12.834 -8.5 21.501 -8.5s15.834 2.83301 21.501 8.5s8.5 12.834 8.5 21.501s-2.83301 15.834 -8.5 21.501s-12.834 8.5 -21.501 8.5s-15.834 -2.83301 -21.501 -8.5s-8.5 -12.834 -8.5 -21.501z" />
    <glyph glyph-name="ae" unicode="&#xe6;" horiz-adv-x="580" 
d="M362 600v-195h151v-100h-151v-205h190v-100h-300v127h-111l-32 -127h-105l187 700h361v-100h-190zM166 222h86v337z" />
    <glyph glyph-name="ccedilla" unicode="&#xe7;" horiz-adv-x="386" 
d="M255 261h104v-93c0 -52 -12.167 -93.167 -36.5 -123.5s-59.5 -47.5 -105.5 -51.5v-32c25.333 0 44 -3.5 56 -10.5s18 -19.167 18 -36.5c0 -24.667 -8.33301 -41 -25 -49s-42 -12 -76 -12c-64 0 -96 19.333 -96 58v10h74v-8c0 -13.333 7.33301 -20 22 -20
c16.667 0 25 8 25 24c0 17.333 -12 26 -36 26h-10v51c-92 9.33301 -138 67.333 -138 174v364c0 56.667 14 100.167 42 130.5s68.667 45.5 122 45.5s94 -15.167 122 -45.5s42 -73.833 42 -130.5v-68h-104v75c0 46 -19 69 -57 69s-57 -23 -57 -69v-378
c0 -45.333 19 -68 57 -68s57 22.667 57 68v100z" />
    <glyph glyph-name="egrave" unicode="&#xe8;" horiz-adv-x="368" 
d="M150 600v-195h151v-100h-151v-205h190v-100h-300v700h300v-100h-190zM68 848h113l68 -111h-79z" />
    <glyph glyph-name="eacute" unicode="&#xe9;" horiz-adv-x="368" 
d="M150 600v-195h151v-100h-151v-205h190v-100h-300v700h300v-100h-190zM199 848h108l-102 -111h-74z" />
    <glyph glyph-name="ecircumflex" unicode="&#xea;" horiz-adv-x="368" 
d="M150 600v-195h151v-100h-151v-205h190v-100h-300v700h300v-100h-190zM144 737h-94l89 111h99l89 -111h-94l-45 55z" />
    <glyph glyph-name="edieresis" unicode="&#xeb;" horiz-adv-x="368" 
d="M150 600v-195h151v-100h-151v-205h190v-100h-300v700h300v-100h-190zM65 833h96v-96h-96v96zM217 833h96v-96h-96v96z" />
    <glyph glyph-name="igrave" unicode="&#xec;" horiz-adv-x="190" 
d="M40 0v700h110v-700h-110zM-25 848h113l68 -111h-79z" />
    <glyph glyph-name="iacute" unicode="&#xed;" horiz-adv-x="190" 
d="M40 0v700h110v-700h-110zM105 848h108l-102 -111h-74z" />
    <glyph glyph-name="icircumflex" unicode="&#xee;" horiz-adv-x="190" 
d="M40 0v700h110v-700h-110zM51 737h-94l89 111h99l89 -111h-94l-45 55z" />
    <glyph glyph-name="idieresis" unicode="&#xef;" horiz-adv-x="190" 
d="M40 0v700h110v-700h-110zM-29 833h96v-96h-96v96zM123 833h96v-96h-96v96z" />
    <glyph glyph-name="eth" unicode="&#xf0;" horiz-adv-x="408" 
d="M40 0v305h-36v90h36v305h174c109.333 0 164 -57.667 164 -173v-354c0 -115.333 -54.667 -173 -164 -173h-174zM212 600h-62v-205h68v-90h-68v-205h62c37.333 0 56 22.667 56 68v364c0 45.333 -18.667 68 -56 68z" />
    <glyph glyph-name="ntilde" unicode="&#xf1;" horiz-adv-x="427" 
d="M275 0l-137 507v-507h-99v700h138l113 -419v419h98v-700h-113zM253 813c19.333 0 33.666 9.66699 42.999 29l53 -37c-16.667 -45.333 -45 -68 -85 -68c-14.667 0 -31 4.16699 -49 12.5s-31.667 12.5 -41 12.5c-19.333 0 -33.666 -9.66699 -42.999 -29l-53 37
c16.667 45.333 45 68 85 68c15.333 0 32 -4.16699 50 -12.5s31.333 -12.5 40 -12.5z" />
    <glyph glyph-name="ograve" unicode="&#xf2;" 
d="M141 539v-378c0 -46 19 -69 57 -69s57 23 57 69v378c0 46 -19 69 -57 69s-57 -23 -57 -69zM31 168v364c0 56 14.333 99.333 43 130s70 46 124 46s95.333 -15.333 124 -46s43 -74 43 -130v-364c0 -56 -14.333 -99.333 -43 -130s-70 -46 -124 -46s-95.333 15.333 -124 46
s-43 74 -43 130zM77 848h113l68 -111h-79z" />
    <glyph glyph-name="oacute" unicode="&#xf3;" 
d="M141 539v-378c0 -46 19 -69 57 -69s57 23 57 69v378c0 46 -19 69 -57 69s-57 -23 -57 -69zM31 168v364c0 56 14.333 99.333 43 130s70 46 124 46s95.333 -15.333 124 -46s43 -74 43 -130v-364c0 -56 -14.333 -99.333 -43 -130s-70 -46 -124 -46s-95.333 15.333 -124 46
s-43 74 -43 130zM208 848h108l-102 -111h-74z" />
    <glyph glyph-name="ocircumflex" unicode="&#xf4;" 
d="M141 539v-378c0 -46 19 -69 57 -69s57 23 57 69v378c0 46 -19 69 -57 69s-57 -23 -57 -69zM31 168v364c0 56 14.333 99.333 43 130s70 46 124 46s95.333 -15.333 124 -46s43 -74 43 -130v-364c0 -56 -14.333 -99.333 -43 -130s-70 -46 -124 -46s-95.333 15.333 -124 46
s-43 74 -43 130zM153 737h-94l89 111h99l89 -111h-94l-45 55z" />
    <glyph glyph-name="otilde" unicode="&#xf5;" 
d="M141 539v-378c0 -46 19 -69 57 -69s57 23 57 69v378c0 46 -19 69 -57 69s-57 -23 -57 -69zM31 168v364c0 56 14.333 99.333 43 130s70 46 124 46s95.333 -15.333 124 -46s43 -74 43 -130v-364c0 -56 -14.333 -99.333 -43 -130s-70 -46 -124 -46s-95.333 15.333 -124 46
s-43 74 -43 130zM238 813c19.333 0 33.666 9.66699 42.999 29l53 -37c-16.667 -45.333 -45 -68 -85 -68c-15.333 0 -32 4.16699 -50 12.5s-31.333 12.5 -40 12.5c-19.333 0 -33.666 -9.66699 -42.999 -29l-53 37c16.667 45.333 45 68 85 68c14.667 0 31 -4.16699 49 -12.5
s31.667 -12.5 41 -12.5z" />
    <glyph glyph-name="odieresis" unicode="&#xf6;" 
d="M141 539v-378c0 -46 19 -69 57 -69s57 23 57 69v378c0 46 -19 69 -57 69s-57 -23 -57 -69zM31 168v364c0 56 14.333 99.333 43 130s70 46 124 46s95.333 -15.333 124 -46s43 -74 43 -130v-364c0 -56 -14.333 -99.333 -43 -130s-70 -46 -124 -46s-95.333 15.333 -124 46
s-43 74 -43 130zM74 833h96v-96h-96v96zM226 833h96v-96h-96v96z" />
    <glyph glyph-name="divide" unicode="&#xf7;" 
d="M145 250h106v-106h-106v106zM145 555h106v-106h-106v106zM25 389h346v-78h-346v78z" />
    <glyph glyph-name="oslash" unicode="&#xf8;" 
d="M31 168l-0.000976562 363.999c0 56 14.333 99.333 43 130s70 46 124 46c40 0 73.333 -8.66699 100 -26l20 55l37 -13l-26 -71c24 -28.667 36 -69 36 -121v-364c0 -56 -14.333 -99.333 -43 -130s-70 -46 -124 -46c-41.333 0 -74.666 8.33301 -99.999 25l-20 -54l-37 13
l25 70c-23.333 30.667 -35 71.334 -35 122.001zM140.999 538.999v-288l112 309c-4.66699 32 -23 48 -55 48c-38 0 -57 -23 -57 -69zM197.999 91.999c38 0 57 23 57 69v288l-113 -309c5.33301 -32 24 -48 56 -48z" />
    <glyph glyph-name="ugrave" unicode="&#xf9;" horiz-adv-x="398" 
d="M35 700h110v-540c0 -45.333 19 -68 57 -68s57 22.667 57 68v540h104v-533c0 -56.667 -14 -100.167 -42 -130.5s-68.667 -45.5 -122 -45.5s-94 15.167 -122 45.5s-42 73.833 -42 130.5v533zM79 848h113l68 -111h-79z" />
    <glyph glyph-name="uacute" unicode="&#xfa;" horiz-adv-x="398" 
d="M35 700h110v-540c0 -45.333 19 -68 57 -68s57 22.667 57 68v540h104v-533c0 -56.667 -14 -100.167 -42 -130.5s-68.667 -45.5 -122 -45.5s-94 15.167 -122 45.5s-42 73.833 -42 130.5v533zM210 848h108l-102 -111h-74z" />
    <glyph glyph-name="ucircumflex" unicode="&#xfb;" horiz-adv-x="398" 
d="M35 700h110v-540c0 -45.333 19 -68 57 -68s57 22.667 57 68v540h104v-533c0 -56.667 -14 -100.167 -42 -130.5s-68.667 -45.5 -122 -45.5s-94 15.167 -122 45.5s-42 73.833 -42 130.5v533zM156 737h-94l89 111h99l89 -111h-94l-45 55z" />
    <glyph glyph-name="udieresis" unicode="&#xfc;" horiz-adv-x="398" 
d="M35 700h110v-540c0 -45.333 19 -68 57 -68s57 22.667 57 68v540h104v-533c0 -56.667 -14 -100.167 -42 -130.5s-68.667 -45.5 -122 -45.5s-94 15.167 -122 45.5s-42 73.833 -42 130.5v533zM77 833h96v-96h-96v96zM229 833h96v-96h-96v96z" />
    <glyph glyph-name="yacute" unicode="&#xfd;" 
d="M143 0v232l-139 468h115l84 -319l84 319h105l-139 -468v-232h-110zM212 848h108l-102 -111h-74z" />
    <glyph glyph-name="thorn" unicode="&#xfe;" horiz-adv-x="377" 
d="M40 0v700h110v-80h52c109.333 0 164 -57.667 164 -173v-91c0 -115.333 -54.667 -173 -164 -173h-52v-183h-110zM202 520h-52v-237h52c18 0 31.5 5 40.5 15s13.5 27 13.5 51v105c0 24 -4.5 41 -13.5 51s-22.5 15 -40.5 15z" />
    <glyph glyph-name="ydieresis" unicode="&#xff;" 
d="M143 0v232l-139 468h115l84 -319l84 319h105l-139 -468v-232h-110zM78 833h96v-96h-96v96zM230 833h96v-96h-96v96z" />
    <glyph glyph-name="Amacron" unicode="&#x100;" horiz-adv-x="407" 
d="M284 700l112 -700h-111l-19 127h-135l-19 -127h-101l112 700h161zM198 576l-53 -354h106zM88 819h230v-78h-230v78z" />
    <glyph glyph-name="amacron" unicode="&#x101;" horiz-adv-x="407" 
d="M284 700l112 -700h-111l-19 127h-135l-19 -127h-101l112 700h161zM198 576l-53 -354h106zM88 819h230v-78h-230v78z" />
    <glyph glyph-name="Abreve" unicode="&#x102;" horiz-adv-x="407" 
d="M284 700l112 -700h-111l-19 127h-135l-19 -127h-101l112 700h161zM198 576l-53 -354h106zM250 848h65.001c0 -36 -9.66699 -64.167 -29 -84.5s-47.333 -30.5 -84 -30.5s-64.167 10.167 -82.5 30.5s-27.833 48.5 -28.5 84.5h65c1.33301 -18 5.66602 -30.333 12.999 -37
s18.333 -10 33 -10c15.333 0 26.833 3.33301 34.5 10s12.167 19 13.5 37z" />
    <glyph glyph-name="abreve" unicode="&#x103;" horiz-adv-x="407" 
d="M284 700l112 -700h-111l-19 127h-135l-19 -127h-101l112 700h161zM198 576l-53 -354h106zM250 848h65.001c0 -36 -9.66699 -64.167 -29 -84.5s-47.333 -30.5 -84 -30.5s-64.167 10.167 -82.5 30.5s-27.833 48.5 -28.5 84.5h65c1.33301 -18 5.66602 -30.333 12.999 -37
s18.333 -10 33 -10c15.333 0 26.833 3.33301 34.5 10s12.167 19 13.5 37z" />
    <glyph glyph-name="Aogonek" unicode="&#x104;" horiz-adv-x="407" 
d="M284 700l112 -700h-41c-20 -16.667 -30 -36 -30 -58c0 -8.66699 3.33301 -15.5 10 -20.5s15 -7.5 25 -7.5c9.33301 0 21.333 2 36 6v-56c-18.667 -7.33301 -41.334 -11 -68.001 -11c-27.333 0 -48.666 5.33301 -63.999 16s-23 26 -23 46c0 28 15.667 52.333 47 73
l-22 139h-135l-19 -127h-101l112 700h161zM198 576l-53 -354h106z" />
    <glyph glyph-name="aogonek" unicode="&#x105;" horiz-adv-x="407" 
d="M284 700l112 -700h-41c-20 -16.667 -30 -36 -30 -58c0 -8.66699 3.33301 -15.5 10 -20.5s15 -7.5 25 -7.5c9.33301 0 21.333 2 36 6v-56c-18.667 -7.33301 -41.334 -11 -68.001 -11c-27.333 0 -48.666 5.33301 -63.999 16s-23 26 -23 46c0 28 15.667 52.333 47 73
l-22 139h-135l-19 -127h-101l112 700h161zM198 576l-53 -354h106z" />
    <glyph glyph-name="Cacute" unicode="&#x106;" horiz-adv-x="386" 
d="M255 261h104v-93c0 -56.667 -14 -100.167 -42 -130.5s-68.667 -45.5 -122 -45.5s-94 15.167 -122 45.5s-42 73.833 -42 130.5v364c0 56.667 14 100.167 42 130.5s68.667 45.5 122 45.5s94 -15.167 122 -45.5s42 -73.833 42 -130.5v-68h-104v75c0 46 -19 69 -57 69
s-57 -23 -57 -69v-378c0 -45.333 19 -68 57 -68s57 22.667 57 68v100zM205 848h108l-102 -111h-74z" />
    <glyph glyph-name="cacute" unicode="&#x107;" horiz-adv-x="386" 
d="M255 261h104v-93c0 -56.667 -14 -100.167 -42 -130.5s-68.667 -45.5 -122 -45.5s-94 15.167 -122 45.5s-42 73.833 -42 130.5v364c0 56.667 14 100.167 42 130.5s68.667 45.5 122 45.5s94 -15.167 122 -45.5s42 -73.833 42 -130.5v-68h-104v75c0 46 -19 69 -57 69
s-57 -23 -57 -69v-378c0 -45.333 19 -68 57 -68s57 22.667 57 68v100zM205 848h108l-102 -111h-74z" />
    <glyph glyph-name="Ccircumflex" unicode="&#x108;" horiz-adv-x="386" 
d="M255 261h104v-93c0 -56.667 -14 -100.167 -42 -130.5s-68.667 -45.5 -122 -45.5s-94 15.167 -122 45.5s-42 73.833 -42 130.5v364c0 56.667 14 100.167 42 130.5s68.667 45.5 122 45.5s94 -15.167 122 -45.5s42 -73.833 42 -130.5v-68h-104v75c0 46 -19 69 -57 69
s-57 -23 -57 -69v-378c0 -45.333 19 -68 57 -68s57 22.667 57 68v100zM150 737h-94l89 111h99l89 -111h-94l-45 55z" />
    <glyph glyph-name="ccircumflex" unicode="&#x109;" horiz-adv-x="386" 
d="M255 261h104v-93c0 -56.667 -14 -100.167 -42 -130.5s-68.667 -45.5 -122 -45.5s-94 15.167 -122 45.5s-42 73.833 -42 130.5v364c0 56.667 14 100.167 42 130.5s68.667 45.5 122 45.5s94 -15.167 122 -45.5s42 -73.833 42 -130.5v-68h-104v75c0 46 -19 69 -57 69
s-57 -23 -57 -69v-378c0 -45.333 19 -68 57 -68s57 22.667 57 68v100zM150 737h-94l89 111h99l89 -111h-94l-45 55z" />
    <glyph glyph-name="Cdotaccent" unicode="&#x10a;" horiz-adv-x="386" 
d="M255 261h104v-93c0 -56.667 -14 -100.167 -42 -130.5s-68.667 -45.5 -122 -45.5s-94 15.167 -122 45.5s-42 73.833 -42 130.5v364c0 56.667 14 100.167 42 130.5s68.667 45.5 122 45.5s94 -15.167 122 -45.5s42 -73.833 42 -130.5v-68h-104v75c0 46 -19 69 -57 69
s-57 -23 -57 -69v-378c0 -45.333 19 -68 57 -68s57 22.667 57 68v100zM147 833h96v-96h-96v96z" />
    <glyph glyph-name="cdotaccent" unicode="&#x10b;" horiz-adv-x="386" 
d="M255 261h104v-93c0 -56.667 -14 -100.167 -42 -130.5s-68.667 -45.5 -122 -45.5s-94 15.167 -122 45.5s-42 73.833 -42 130.5v364c0 56.667 14 100.167 42 130.5s68.667 45.5 122 45.5s94 -15.167 122 -45.5s42 -73.833 42 -130.5v-68h-104v75c0 46 -19 69 -57 69
s-57 -23 -57 -69v-378c0 -45.333 19 -68 57 -68s57 22.667 57 68v100zM147 833h96v-96h-96v96z" />
    <glyph glyph-name="Ccaron" unicode="&#x10c;" horiz-adv-x="386" 
d="M255 261h104v-93c0 -56.667 -14 -100.167 -42 -130.5s-68.667 -45.5 -122 -45.5s-94 15.167 -122 45.5s-42 73.833 -42 130.5v364c0 56.667 14 100.167 42 130.5s68.667 45.5 122 45.5s94 -15.167 122 -45.5s42 -73.833 42 -130.5v-68h-104v75c0 46 -19 69 -57 69
s-57 -23 -57 -69v-378c0 -45.333 19 -68 57 -68s57 22.667 57 68v100zM56 848h94l44 -56l45 56h94l-89 -111h-99z" />
    <glyph glyph-name="ccaron" unicode="&#x10d;" horiz-adv-x="386" 
d="M255 261h104v-93c0 -56.667 -14 -100.167 -42 -130.5s-68.667 -45.5 -122 -45.5s-94 15.167 -122 45.5s-42 73.833 -42 130.5v364c0 56.667 14 100.167 42 130.5s68.667 45.5 122 45.5s94 -15.167 122 -45.5s42 -73.833 42 -130.5v-68h-104v75c0 46 -19 69 -57 69
s-57 -23 -57 -69v-378c0 -45.333 19 -68 57 -68s57 22.667 57 68v100zM56 848h94l44 -56l45 56h94l-89 -111h-99z" />
    <glyph glyph-name="Dcaron" unicode="&#x10e;" horiz-adv-x="408" 
d="M40 0v700h174c109.333 0 164 -57.667 164 -173v-354c0 -115.333 -54.667 -173 -164 -173h-174zM212 600h-62v-500h62c37.333 0 56 22.667 56 68v364c0 45.333 -18.667 68 -56 68zM56 848h94l44 -56l45 56h94l-89 -111h-99z" />
    <glyph glyph-name="dcaron" unicode="&#x10f;" horiz-adv-x="408" 
d="M40 0v700h174c109.333 0 164 -57.667 164 -173v-354c0 -115.333 -54.667 -173 -164 -173h-174zM212 600h-62v-500h62c37.333 0 56 22.667 56 68v364c0 45.333 -18.667 68 -56 68zM56 848h94l44 -56l45 56h94l-89 -111h-99z" />
    <glyph glyph-name="Dcroat" unicode="&#x110;" horiz-adv-x="408" 
d="M40 0v305h-36v90h36v305h174c109.333 0 164 -57.667 164 -173v-354c0 -115.333 -54.667 -173 -164 -173h-174zM212 600h-62v-205h68v-90h-68v-205h62c37.333 0 56 22.667 56 68v364c0 45.333 -18.667 68 -56 68z" />
    <glyph glyph-name="dcroat" unicode="&#x111;" horiz-adv-x="408" 
d="M40 0v305h-36v90h36v305h174c109.333 0 164 -57.667 164 -173v-354c0 -115.333 -54.667 -173 -164 -173h-174zM212 600h-62v-205h68v-90h-68v-205h62c37.333 0 56 22.667 56 68v364c0 45.333 -18.667 68 -56 68z" />
    <glyph glyph-name="Emacron" unicode="&#x112;" horiz-adv-x="368" 
d="M150 600v-195h151v-100h-151v-205h190v-100h-300v700h300v-100h-190zM73 819h230v-78h-230v78z" />
    <glyph glyph-name="emacron" unicode="&#x113;" horiz-adv-x="368" 
d="M150 600v-195h151v-100h-151v-205h190v-100h-300v700h300v-100h-190zM73 819h230v-78h-230v78z" />
    <glyph glyph-name="Ebreve" unicode="&#x114;" horiz-adv-x="368" 
d="M150 600v-195h151v-100h-151v-205h190v-100h-300v700h300v-100h-190zM235 848h65.001c0 -36 -9.66699 -64.167 -29 -84.5s-47.333 -30.5 -84 -30.5s-64.167 10.167 -82.5 30.5s-27.833 48.5 -28.5 84.5h65c1.33301 -18 5.66602 -30.333 12.999 -37s18.333 -10 33 -10
c15.333 0 26.833 3.33301 34.5 10s12.167 19 13.5 37z" />
    <glyph glyph-name="ebreve" unicode="&#x115;" horiz-adv-x="368" 
d="M150 600v-195h151v-100h-151v-205h190v-100h-300v700h300v-100h-190zM235 848h65.001c0 -36 -9.66699 -64.167 -29 -84.5s-47.333 -30.5 -84 -30.5s-64.167 10.167 -82.5 30.5s-27.833 48.5 -28.5 84.5h65c1.33301 -18 5.66602 -30.333 12.999 -37s18.333 -10 33 -10
c15.333 0 26.833 3.33301 34.5 10s12.167 19 13.5 37z" />
    <glyph glyph-name="Edotaccent" unicode="&#x116;" horiz-adv-x="368" 
d="M150 600v-195h151v-100h-151v-205h190v-100h-300v700h300v-100h-190zM140 833h96v-96h-96v96z" />
    <glyph glyph-name="edotaccent" unicode="&#x117;" horiz-adv-x="368" 
d="M150 600v-195h151v-100h-151v-205h190v-100h-300v700h300v-100h-190zM140 833h96v-96h-96v96z" />
    <glyph glyph-name="Eogonek" unicode="&#x118;" horiz-adv-x="368" 
d="M150 600v-195h151v-100h-151v-205h190v-100h-41c-20 -16.667 -30 -36 -30 -58c0 -8.66699 3.33301 -15.5 10 -20.5s15 -7.5 25 -7.5c9.33301 0 21.333 2 36 6v-56c-18.667 -7.33301 -41.334 -11 -68.001 -11c-27.333 0 -48.666 5.33301 -63.999 16s-23 26 -23 46
c0 34 22.333 62.333 67 85h-212v700h300v-100h-190z" />
    <glyph glyph-name="eogonek" unicode="&#x119;" horiz-adv-x="368" 
d="M150 600v-195h151v-100h-151v-205h190v-100h-41c-20 -16.667 -30 -36 -30 -58c0 -8.66699 3.33301 -15.5 10 -20.5s15 -7.5 25 -7.5c9.33301 0 21.333 2 36 6v-56c-18.667 -7.33301 -41.334 -11 -68.001 -11c-27.333 0 -48.666 5.33301 -63.999 16s-23 26 -23 46
c0 34 22.333 62.333 67 85h-212v700h300v-100h-190z" />
    <glyph glyph-name="Ecaron" unicode="&#x11a;" horiz-adv-x="368" 
d="M150 600v-195h151v-100h-151v-205h190v-100h-300v700h300v-100h-190zM49 848h94l44 -56l45 56h94l-89 -111h-99z" />
    <glyph glyph-name="ecaron" unicode="&#x11b;" horiz-adv-x="368" 
d="M150 600v-195h151v-100h-151v-205h190v-100h-300v700h300v-100h-190zM49 848h94l44 -56l45 56h94l-89 -111h-99z" />
    <glyph glyph-name="Gcircumflex" unicode="&#x11c;" horiz-adv-x="390" 
d="M205 290v100h154v-222c0 -56.667 -14 -100.167 -42 -130.5s-68.667 -45.5 -122 -45.5s-94 15.167 -122 45.5s-42 73.833 -42 130.5v364c0 56.667 14 100.167 42 130.5s68.667 45.5 122 45.5s94 -15.167 122 -45.5s42 -73.833 42 -130.5v-68h-104v75c0 46 -19 69 -57 69
s-57 -23 -57 -69v-378c0 -45.333 19 -68 57 -68s57 22.667 57 68v129h-50zM150 737h-94l89 111h99l89 -111h-94l-45 55z" />
    <glyph glyph-name="gcircumflex" unicode="&#x11d;" horiz-adv-x="390" 
d="M205 290v100h154v-222c0 -56.667 -14 -100.167 -42 -130.5s-68.667 -45.5 -122 -45.5s-94 15.167 -122 45.5s-42 73.833 -42 130.5v364c0 56.667 14 100.167 42 130.5s68.667 45.5 122 45.5s94 -15.167 122 -45.5s42 -73.833 42 -130.5v-68h-104v75c0 46 -19 69 -57 69
s-57 -23 -57 -69v-378c0 -45.333 19 -68 57 -68s57 22.667 57 68v129h-50zM150 737h-94l89 111h99l89 -111h-94l-45 55z" />
    <glyph glyph-name="Gbreve" unicode="&#x11e;" horiz-adv-x="390" 
d="M205 290v100h154v-222c0 -56.667 -14 -100.167 -42 -130.5s-68.667 -45.5 -122 -45.5s-94 15.167 -122 45.5s-42 73.833 -42 130.5v364c0 56.667 14 100.167 42 130.5s68.667 45.5 122 45.5s94 -15.167 122 -45.5s42 -73.833 42 -130.5v-68h-104v75c0 46 -19 69 -57 69
s-57 -23 -57 -69v-378c0 -45.333 19 -68 57 -68s57 22.667 57 68v129h-50zM241 848h65.001c0 -36 -9.66699 -64.167 -29 -84.5s-47.333 -30.5 -84 -30.5s-64.167 10.167 -82.5 30.5s-27.833 48.5 -28.5 84.5h65c1.33301 -18 5.66602 -30.333 12.999 -37s18.333 -10 33 -10
c15.333 0 26.833 3.33301 34.5 10s12.167 19 13.5 37z" />
    <glyph glyph-name="gbreve" unicode="&#x11f;" horiz-adv-x="390" 
d="M205 290v100h154v-222c0 -56.667 -14 -100.167 -42 -130.5s-68.667 -45.5 -122 -45.5s-94 15.167 -122 45.5s-42 73.833 -42 130.5v364c0 56.667 14 100.167 42 130.5s68.667 45.5 122 45.5s94 -15.167 122 -45.5s42 -73.833 42 -130.5v-68h-104v75c0 46 -19 69 -57 69
s-57 -23 -57 -69v-378c0 -45.333 19 -68 57 -68s57 22.667 57 68v129h-50zM241 848h65.001c0 -36 -9.66699 -64.167 -29 -84.5s-47.333 -30.5 -84 -30.5s-64.167 10.167 -82.5 30.5s-27.833 48.5 -28.5 84.5h65c1.33301 -18 5.66602 -30.333 12.999 -37s18.333 -10 33 -10
c15.333 0 26.833 3.33301 34.5 10s12.167 19 13.5 37z" />
    <glyph glyph-name="Gdotaccent" unicode="&#x120;" horiz-adv-x="390" 
d="M205 290v100h154v-222c0 -56.667 -14 -100.167 -42 -130.5s-68.667 -45.5 -122 -45.5s-94 15.167 -122 45.5s-42 73.833 -42 130.5v364c0 56.667 14 100.167 42 130.5s68.667 45.5 122 45.5s94 -15.167 122 -45.5s42 -73.833 42 -130.5v-68h-104v75c0 46 -19 69 -57 69
s-57 -23 -57 -69v-378c0 -45.333 19 -68 57 -68s57 22.667 57 68v129h-50zM146 833h96v-96h-96v96z" />
    <glyph glyph-name="gdotaccent" unicode="&#x121;" horiz-adv-x="390" 
d="M205 290v100h154v-222c0 -56.667 -14 -100.167 -42 -130.5s-68.667 -45.5 -122 -45.5s-94 15.167 -122 45.5s-42 73.833 -42 130.5v364c0 56.667 14 100.167 42 130.5s68.667 45.5 122 45.5s94 -15.167 122 -45.5s42 -73.833 42 -130.5v-68h-104v75c0 46 -19 69 -57 69
s-57 -23 -57 -69v-378c0 -45.333 19 -68 57 -68s57 22.667 57 68v129h-50zM146 833h96v-96h-96v96z" />
    <glyph glyph-name="uni0122" unicode="&#x122;" horiz-adv-x="390" 
d="M205 290v100h154v-222c0 -56.667 -14 -100.167 -42 -130.5s-68.667 -45.5 -122 -45.5s-94 15.167 -122 45.5s-42 73.833 -42 130.5v364c0 56.667 14 100.167 42 130.5s68.667 45.5 122 45.5s94 -15.167 122 -45.5s42 -73.833 42 -130.5v-68h-104v75c0 46 -19 69 -57 69
s-57 -23 -57 -69v-378c0 -45.333 19 -68 57 -68s57 22.667 57 68v129h-50zM185 -125h-36v92h92v-82l-43 -64h-39z" />
    <glyph glyph-name="uni0123" unicode="&#x123;" horiz-adv-x="390" 
d="M205 290v100h154v-222c0 -56.667 -14 -100.167 -42 -130.5s-68.667 -45.5 -122 -45.5s-94 15.167 -122 45.5s-42 73.833 -42 130.5v364c0 56.667 14 100.167 42 130.5s68.667 45.5 122 45.5s94 -15.167 122 -45.5s42 -73.833 42 -130.5v-68h-104v75c0 46 -19 69 -57 69
s-57 -23 -57 -69v-378c0 -45.333 19 -68 57 -68s57 22.667 57 68v129h-50zM185 -125h-36v92h92v-82l-43 -64h-39z" />
    <glyph glyph-name="Hcircumflex" unicode="&#x124;" horiz-adv-x="427" 
d="M150 300v-300h-110v700h110v-300h125v300h112v-700h-112v300h-125zM169 737h-94l89 111h99l89 -111h-94l-45 55z" />
    <glyph glyph-name="hcircumflex" unicode="&#x125;" horiz-adv-x="427" 
d="M150 300v-300h-110v700h110v-300h125v300h112v-700h-112v300h-125zM169 737h-94l89 111h99l89 -111h-94l-45 55z" />
    <glyph glyph-name="Hbar" unicode="&#x126;" horiz-adv-x="437" 
d="M155 300v-300h-110v502h-35v82h35v116h110v-116h125v116h112v-116h35v-82h-35v-502h-112v300h-125zM155 400h125v102h-125v-102z" />
    <glyph glyph-name="hbar" unicode="&#x127;" horiz-adv-x="437" 
d="M155 300v-300h-110v502h-35v82h35v116h110v-116h125v116h112v-116h35v-82h-35v-502h-112v300h-125zM155 400h125v102h-125v-102z" />
    <glyph glyph-name="Itilde" unicode="&#x128;" horiz-adv-x="190" 
d="M40 0v700h110v-700h-110zM135 813c19.333 0 33.666 9.66699 42.999 29l53 -37c-16.667 -45.333 -45 -68 -85 -68c-14.667 0 -31 4.16699 -49 12.5s-31.667 12.5 -41 12.5c-19.333 0 -33.666 -9.66699 -42.999 -29l-53 37c16.667 45.333 45 68 85 68
c15.333 0 32 -4.16699 50 -12.5s31.333 -12.5 40 -12.5z" />
    <glyph glyph-name="itilde" unicode="&#x129;" horiz-adv-x="190" 
d="M40 0v700h110v-700h-110zM135 813c19.333 0 33.666 9.66699 42.999 29l53 -37c-16.667 -45.333 -45 -68 -85 -68c-14.667 0 -31 4.16699 -49 12.5s-31.667 12.5 -41 12.5c-19.333 0 -33.666 -9.66699 -42.999 -29l-53 37c16.667 45.333 45 68 85 68
c15.333 0 32 -4.16699 50 -12.5s31.333 -12.5 40 -12.5z" />
    <glyph glyph-name="Imacron" unicode="&#x12a;" horiz-adv-x="190" 
d="M40 0v700h110v-700h-110zM-20 819h230v-78h-230v78z" />
    <glyph glyph-name="imacron" unicode="&#x12b;" horiz-adv-x="190" 
d="M40 0v700h110v-700h-110zM-20 819h230v-78h-230v78z" />
    <glyph glyph-name="Ibreve" unicode="&#x12c;" horiz-adv-x="190" 
d="M40 0v700h110v-700h-110zM142 848h65.001c0 -36 -9.66699 -64.167 -29 -84.5s-47.333 -30.5 -84 -30.5s-64.167 10.167 -82.5 30.5s-27.833 48.5 -28.5 84.5h65c1.33301 -18 5.66602 -30.333 12.999 -37s18.333 -10 33 -10c15.333 0 26.833 3.33301 34.5 10
s12.167 19 13.5 37z" />
    <glyph glyph-name="ibreve" unicode="&#x12d;" horiz-adv-x="190" 
d="M40 0v700h110v-700h-110zM142 848h65.001c0 -36 -9.66699 -64.167 -29 -84.5s-47.333 -30.5 -84 -30.5s-64.167 10.167 -82.5 30.5s-27.833 48.5 -28.5 84.5h65c1.33301 -18 5.66602 -30.333 12.999 -37s18.333 -10 33 -10c15.333 0 26.833 3.33301 34.5 10
s12.167 19 13.5 37z" />
    <glyph glyph-name="Iogonek" unicode="&#x12e;" horiz-adv-x="190" 
d="M40 0v700h110v-700h-20c-20 -16.667 -30 -36 -30 -58c0 -8.66699 3.33301 -15.5 10 -20.5s15 -7.5 25 -7.5c9.33301 0 21.333 2 36 6v-56c-18.667 -7.33301 -41.334 -11 -68.001 -11c-27.333 0 -48.666 5.33301 -63.999 16s-23 26 -23 46c0 34 22.333 62.333 67 85h-43z
" />
    <glyph glyph-name="iogonek" unicode="&#x12f;" horiz-adv-x="190" 
d="M40 0v700h110v-700h-20c-20 -16.667 -30 -36 -30 -58c0 -8.66699 3.33301 -15.5 10 -20.5s15 -7.5 25 -7.5c9.33301 0 21.333 2 36 6v-56c-18.667 -7.33301 -41.334 -11 -68.001 -11c-27.333 0 -48.666 5.33301 -63.999 16s-23 26 -23 46c0 34 22.333 62.333 67 85h-43z
" />
    <glyph glyph-name="Idotaccent" unicode="&#x130;" horiz-adv-x="190" 
d="M40 0v700h110v-700h-110zM47 833h96v-96h-96v96z" />
    <glyph glyph-name="dotlessi" unicode="&#x131;" horiz-adv-x="190" 
d="M40 0v700h110v-700h-110z" />
    <glyph glyph-name="IJ" unicode="&#x132;" horiz-adv-x="446" 
d="M40 0v700h110v-700h-110zM200 0v100c8 -0.666992 20.667 -1 38 -1c42 0 63 22.333 63 67v534h110v-526c0 -117.333 -52.667 -176 -158 -176c-23.333 0 -41 0.666992 -53 2z" />
    <glyph glyph-name="ij" unicode="&#x133;" horiz-adv-x="446" 
d="M40 0v700h110v-700h-110zM200 0v100c8 -0.666992 20.667 -1 38 -1c42 0 63 22.333 63 67v534h110v-526c0 -117.333 -52.667 -176 -158 -176c-23.333 0 -41 0.666992 -53 2z" />
    <glyph glyph-name="Jcircumflex" unicode="&#x134;" horiz-adv-x="256" 
d="M10 0v100c8 -0.666992 20.667 -1 38 -1c42 0 63 22.333 63 67v534h110v-526c0 -117.333 -52.667 -176 -158 -176c-23.333 0 -41 0.666992 -53 2zM103 737h-94l89 111h99l89 -111h-94l-45 55z" />
    <glyph glyph-name="jcircumflex" unicode="&#x135;" horiz-adv-x="256" 
d="M10 0v100c8 -0.666992 20.667 -1 38 -1c42 0 63 22.333 63 67v534h110v-526c0 -117.333 -52.667 -176 -158 -176c-23.333 0 -41 0.666992 -53 2zM103 737h-94l89 111h99l89 -111h-94l-45 55z" />
    <glyph glyph-name="uni0136" unicode="&#x136;" horiz-adv-x="414" 
d="M291 0l-107 279l-34 -64v-215h-110v700h110v-305l144 305h110l-153 -312l153 -388h-113zM205 -125h-36v92h92v-82l-43 -64h-39z" />
    <glyph glyph-name="uni0137" unicode="&#x137;" horiz-adv-x="414" 
d="M291 0l-107 279l-34 -64v-215h-110v700h110v-305l144 305h110l-153 -312l153 -388h-113zM205 -125h-36v92h92v-82l-43 -64h-39z" />
    <glyph glyph-name="kgreenlandic" unicode="&#x138;" horiz-adv-x="414" 
d="M291 0l-107 279l-34 -64v-215h-110v700h110v-305l144 305h110l-153 -312l153 -388h-113z" />
    <glyph glyph-name="Lacute" unicode="&#x139;" horiz-adv-x="339" 
d="M40 0v700h110v-600h181v-100h-291zM140 848h108l-102 -111h-74z" />
    <glyph glyph-name="lacute" unicode="&#x13a;" horiz-adv-x="339" 
d="M40 0v700h110v-600h181v-100h-291zM140 848h108l-102 -111h-74z" />
    <glyph glyph-name="uni013B" unicode="&#x13b;" horiz-adv-x="339" 
d="M40 0v700h110v-600h181v-100h-291zM176 -125h-36v92h92v-82l-43 -64h-39z" />
    <glyph glyph-name="uni013C" unicode="&#x13c;" horiz-adv-x="339" 
d="M40 0v700h110v-600h181v-100h-291zM176 -125h-36v92h92v-82l-43 -64h-39z" />
    <glyph glyph-name="Lcaron" unicode="&#x13d;" horiz-adv-x="339" 
d="M40 0v700h110v-600h181v-100h-291zM253 594h-42v106h106v-95l-48 -111h-45z" />
    <glyph glyph-name="lcaron" unicode="&#x13e;" horiz-adv-x="339" 
d="M40 0v700h110v-600h181v-100h-291zM253 594h-42v106h106v-95l-48 -111h-45z" />
    <glyph glyph-name="Ldot" unicode="&#x13f;" horiz-adv-x="339" 
d="M40 0v700h110v-600h181v-100h-291zM210 403h106v-106h-106v106z" />
    <glyph glyph-name="ldot" unicode="&#x140;" horiz-adv-x="339" 
d="M40 0v700h110v-600h181v-100h-291zM210 403h106v-106h-106v106z" />
    <glyph glyph-name="Lslash" unicode="&#x141;" horiz-adv-x="348" 
d="M0 95v100l49 52v453h110v-335l121 130v-100l-121 -130v-165h181v-100h-291v147z" />
    <glyph glyph-name="lslash" unicode="&#x142;" horiz-adv-x="348" 
d="M0 95v100l49 52v453h110v-335l121 130v-100l-121 -130v-165h181v-100h-291v147z" />
    <glyph glyph-name="Nacute" unicode="&#x143;" horiz-adv-x="427" 
d="M275 0l-137 507v-507h-99v700h138l113 -419v419h98v-700h-113zM223 848h108l-102 -111h-74z" />
    <glyph glyph-name="nacute" unicode="&#x144;" horiz-adv-x="427" 
d="M275 0l-137 507v-507h-99v700h138l113 -419v419h98v-700h-113zM223 848h108l-102 -111h-74z" />
    <glyph glyph-name="uni0145" unicode="&#x145;" horiz-adv-x="427" 
d="M275 0l-137 507v-507h-99v700h138l113 -419v419h98v-700h-113zM203 -125h-36v92h92v-82l-43 -64h-39z" />
    <glyph glyph-name="uni0146" unicode="&#x146;" horiz-adv-x="427" 
d="M275 0l-137 507v-507h-99v700h138l113 -419v419h98v-700h-113zM203 -125h-36v92h92v-82l-43 -64h-39z" />
    <glyph glyph-name="Ncaron" unicode="&#x147;" horiz-adv-x="427" 
d="M275 0l-137 507v-507h-99v700h138l113 -419v419h98v-700h-113zM75 848h94l44 -56l45 56h94l-89 -111h-99z" />
    <glyph glyph-name="ncaron" unicode="&#x148;" horiz-adv-x="427" 
d="M275 0l-137 507v-507h-99v700h138l113 -419v419h98v-700h-113zM75 848h94l44 -56l45 56h94l-89 -111h-99z" />
    <glyph glyph-name="napostrophe" unicode="&#x149;" horiz-adv-x="543" 
d="M391 0l-137 507v-507h-99v700h138l113 -419v419h98v-700h-113zM47 594h-42v106h106v-95l-48 -111h-45z" />
    <glyph glyph-name="Omacron" unicode="&#x14c;" 
d="M141 539v-378c0 -46 19 -69 57 -69s57 23 57 69v378c0 46 -19 69 -57 69s-57 -23 -57 -69zM31 168v364c0 56 14.333 99.333 43 130s70 46 124 46s95.333 -15.333 124 -46s43 -74 43 -130v-364c0 -56 -14.333 -99.333 -43 -130s-70 -46 -124 -46s-95.333 15.333 -124 46
s-43 74 -43 130zM83 819h230v-78h-230v78z" />
    <glyph glyph-name="omacron" unicode="&#x14d;" 
d="M141 539v-378c0 -46 19 -69 57 -69s57 23 57 69v378c0 46 -19 69 -57 69s-57 -23 -57 -69zM31 168v364c0 56 14.333 99.333 43 130s70 46 124 46s95.333 -15.333 124 -46s43 -74 43 -130v-364c0 -56 -14.333 -99.333 -43 -130s-70 -46 -124 -46s-95.333 15.333 -124 46
s-43 74 -43 130zM83 819h230v-78h-230v78z" />
    <glyph glyph-name="Obreve" unicode="&#x14e;" 
d="M141 539v-378c0 -46 19 -69 57 -69s57 23 57 69v378c0 46 -19 69 -57 69s-57 -23 -57 -69zM31 168v364c0 56 14.333 99.333 43 130s70 46 124 46s95.333 -15.333 124 -46s43 -74 43 -130v-364c0 -56 -14.333 -99.333 -43 -130s-70 -46 -124 -46s-95.333 15.333 -124 46
s-43 74 -43 130zM245 848h65.001c0 -36 -9.66699 -64.167 -29 -84.5s-47.333 -30.5 -84 -30.5s-64.167 10.167 -82.5 30.5s-27.833 48.5 -28.5 84.5h65c1.33301 -18 5.66602 -30.333 12.999 -37s18.333 -10 33 -10c15.333 0 26.833 3.33301 34.5 10s12.167 19 13.5 37z" />
    <glyph glyph-name="obreve" unicode="&#x14f;" 
d="M141 539v-378c0 -46 19 -69 57 -69s57 23 57 69v378c0 46 -19 69 -57 69s-57 -23 -57 -69zM31 168v364c0 56 14.333 99.333 43 130s70 46 124 46s95.333 -15.333 124 -46s43 -74 43 -130v-364c0 -56 -14.333 -99.333 -43 -130s-70 -46 -124 -46s-95.333 15.333 -124 46
s-43 74 -43 130zM245 848h65.001c0 -36 -9.66699 -64.167 -29 -84.5s-47.333 -30.5 -84 -30.5s-64.167 10.167 -82.5 30.5s-27.833 48.5 -28.5 84.5h65c1.33301 -18 5.66602 -30.333 12.999 -37s18.333 -10 33 -10c15.333 0 26.833 3.33301 34.5 10s12.167 19 13.5 37z" />
    <glyph glyph-name="Ohungarumlaut" unicode="&#x150;" 
d="M141 539v-378c0 -46 19 -69 57 -69s57 23 57 69v378c0 46 -19 69 -57 69s-57 -23 -57 -69zM31 168v364c0 56 14.333 99.333 43 130s70 46 124 46s95.333 -15.333 124 -46s43 -74 43 -130v-364c0 -56 -14.333 -99.333 -43 -130s-70 -46 -124 -46s-95.333 15.333 -124 46
s-43 74 -43 130zM132 848h100l-83 -111h-67zM262 848h101l-84 -111h-66z" />
    <glyph glyph-name="ohungarumlaut" unicode="&#x151;" 
d="M141 539v-378c0 -46 19 -69 57 -69s57 23 57 69v378c0 46 -19 69 -57 69s-57 -23 -57 -69zM31 168v364c0 56 14.333 99.333 43 130s70 46 124 46s95.333 -15.333 124 -46s43 -74 43 -130v-364c0 -56 -14.333 -99.333 -43 -130s-70 -46 -124 -46s-95.333 15.333 -124 46
s-43 74 -43 130zM132 848h100l-83 -111h-67zM262 848h101l-84 -111h-66z" />
    <glyph glyph-name="OE" unicode="&#x152;" horiz-adv-x="586" 
d="M368 600v-195h151v-100h-151v-205h190v-100h-364c-109.333 0 -164 57.667 -164 173v354c0 115.333 54.667 173 164 173h364v-100h-190zM258 100v500h-62c-37.333 0 -56 -22.667 -56 -68v-364c0 -45.333 18.667 -68 56 -68h62z" />
    <glyph glyph-name="oe" unicode="&#x153;" horiz-adv-x="586" 
d="M368 600v-195h151v-100h-151v-205h190v-100h-364c-109.333 0 -164 57.667 -164 173v354c0 115.333 54.667 173 164 173h364v-100h-190zM258 100v500h-62c-37.333 0 -56 -22.667 -56 -68v-364c0 -45.333 18.667 -68 56 -68h62z" />
    <glyph glyph-name="Racute" unicode="&#x154;" horiz-adv-x="402" 
d="M382 0l-112.001 0.000976562c-6.66699 20 -10 48.667 -10 86v110c0 32 -5.66699 54.833 -17 68.5s-29.666 20.5 -54.999 20.5h-38v-285h-110v700h166c56.667 0 98 -13.167 124 -39.5s39 -66.833 39 -121.5v-55c0 -72 -24 -119.333 -72 -142
c48.667 -20.667 73 -70.334 73 -149.001v-108c0 -38 4 -66.333 12 -85zM202.999 600.001h-53v-215h43c22 0 38.5 5.66699 49.5 17s16.5 30.333 16.5 57v69c0 48 -18.667 72 -56 72zM204.999 848.001h108l-102 -111h-74z" />
    <glyph glyph-name="racute" unicode="&#x155;" horiz-adv-x="402" 
d="M382 0l-112.001 0.000976562c-6.66699 20 -10 48.667 -10 86v110c0 32 -5.66699 54.833 -17 68.5s-29.666 20.5 -54.999 20.5h-38v-285h-110v700h166c56.667 0 98 -13.167 124 -39.5s39 -66.833 39 -121.5v-55c0 -72 -24 -119.333 -72 -142
c48.667 -20.667 73 -70.334 73 -149.001v-108c0 -38 4 -66.333 12 -85zM202.999 600.001h-53v-215h43c22 0 38.5 5.66699 49.5 17s16.5 30.333 16.5 57v69c0 48 -18.667 72 -56 72zM204.999 848.001h108l-102 -111h-74z" />
    <glyph glyph-name="uni0156" unicode="&#x156;" horiz-adv-x="402" 
d="M382 0l-112.001 0.000976562c-6.66699 20 -10 48.667 -10 86v110c0 32 -5.66699 54.833 -17 68.5s-29.666 20.5 -54.999 20.5h-38v-285h-110v700h166c56.667 0 98 -13.167 124 -39.5s39 -66.833 39 -121.5v-55c0 -72 -24 -119.333 -72 -142
c48.667 -20.667 73 -70.334 73 -149.001v-108c0 -38 4 -66.333 12 -85zM202.999 600.001h-53v-215h43c22 0 38.5 5.66699 49.5 17s16.5 30.333 16.5 57v69c0 48 -18.667 72 -56 72zM192.999 -124.999h-36v92h92v-82l-43 -64h-39z" />
    <glyph glyph-name="uni0157" unicode="&#x157;" horiz-adv-x="402" 
d="M382 0l-112.001 0.000976562c-6.66699 20 -10 48.667 -10 86v110c0 32 -5.66699 54.833 -17 68.5s-29.666 20.5 -54.999 20.5h-38v-285h-110v700h166c56.667 0 98 -13.167 124 -39.5s39 -66.833 39 -121.5v-55c0 -72 -24 -119.333 -72 -142
c48.667 -20.667 73 -70.334 73 -149.001v-108c0 -38 4 -66.333 12 -85zM202.999 600.001h-53v-215h43c22 0 38.5 5.66699 49.5 17s16.5 30.333 16.5 57v69c0 48 -18.667 72 -56 72zM192.999 -124.999h-36v92h92v-82l-43 -64h-39z" />
    <glyph glyph-name="Rcaron" unicode="&#x158;" horiz-adv-x="402" 
d="M382 0l-112.001 0.000976562c-6.66699 20 -10 48.667 -10 86v110c0 32 -5.66699 54.833 -17 68.5s-29.666 20.5 -54.999 20.5h-38v-285h-110v700h166c56.667 0 98 -13.167 124 -39.5s39 -66.833 39 -121.5v-55c0 -72 -24 -119.333 -72 -142
c48.667 -20.667 73 -70.334 73 -149.001v-108c0 -38 4 -66.333 12 -85zM202.999 600.001h-53v-215h43c22 0 38.5 5.66699 49.5 17s16.5 30.333 16.5 57v69c0 48 -18.667 72 -56 72zM55.999 848.001h94l44 -56l45 56h94l-89 -111h-99z" />
    <glyph glyph-name="rcaron" unicode="&#x159;" horiz-adv-x="402" 
d="M382 0l-112.001 0.000976562c-6.66699 20 -10 48.667 -10 86v110c0 32 -5.66699 54.833 -17 68.5s-29.666 20.5 -54.999 20.5h-38v-285h-110v700h166c56.667 0 98 -13.167 124 -39.5s39 -66.833 39 -121.5v-55c0 -72 -24 -119.333 -72 -142
c48.667 -20.667 73 -70.334 73 -149.001v-108c0 -38 4 -66.333 12 -85zM202.999 600.001h-53v-215h43c22 0 38.5 5.66699 49.5 17s16.5 30.333 16.5 57v69c0 48 -18.667 72 -56 72zM55.999 848.001h94l44 -56l45 56h94l-89 -111h-99z" />
    <glyph glyph-name="Sacute" unicode="&#x15a;" horiz-adv-x="374" 
d="M26 532c0 56.667 13.6689 100.167 41.002 130.5s67.666 45.5 120.999 45.5s93.666 -15.167 120.999 -45.5s41 -73.833 41 -130.5v-22h-104v29c0 46 -18.333 69 -55 69s-55 -23 -55 -69c0 -26 7.33301 -50.5 22 -73.5s32.5 -43.833 53.5 -62.5l63.5 -58.5
c21.333 -20.333 39.333 -45.666 54 -75.999s22 -63.833 22 -100.5c0 -56.667 -14 -100.167 -42 -130.5s-68.667 -45.5 -122 -45.5s-94 15.167 -122 45.5s-42 73.833 -42 130.5v43h104v-50c0 -45.333 19 -68 57 -68s57 22.667 57 68c0 26 -7.33301 50.5 -22 73.5
s-32.5 43.833 -53.5 62.5l-63.5 58.5c-21.333 20.333 -39.333 45.666 -54 75.999s-22 63.833 -22 100.5zM197.002 848h108l-102 -111h-74z" />
    <glyph glyph-name="sacute" unicode="&#x15b;" horiz-adv-x="374" 
d="M26 532c0 56.667 13.6689 100.167 41.002 130.5s67.666 45.5 120.999 45.5s93.666 -15.167 120.999 -45.5s41 -73.833 41 -130.5v-22h-104v29c0 46 -18.333 69 -55 69s-55 -23 -55 -69c0 -26 7.33301 -50.5 22 -73.5s32.5 -43.833 53.5 -62.5l63.5 -58.5
c21.333 -20.333 39.333 -45.666 54 -75.999s22 -63.833 22 -100.5c0 -56.667 -14 -100.167 -42 -130.5s-68.667 -45.5 -122 -45.5s-94 15.167 -122 45.5s-42 73.833 -42 130.5v43h104v-50c0 -45.333 19 -68 57 -68s57 22.667 57 68c0 26 -7.33301 50.5 -22 73.5
s-32.5 43.833 -53.5 62.5l-63.5 58.5c-21.333 20.333 -39.333 45.666 -54 75.999s-22 63.833 -22 100.5zM197.002 848h108l-102 -111h-74z" />
    <glyph glyph-name="Scircumflex" unicode="&#x15c;" horiz-adv-x="374" 
d="M26 532c0 56.667 13.6689 100.167 41.002 130.5s67.666 45.5 120.999 45.5s93.666 -15.167 120.999 -45.5s41 -73.833 41 -130.5v-22h-104v29c0 46 -18.333 69 -55 69s-55 -23 -55 -69c0 -26 7.33301 -50.5 22 -73.5s32.5 -43.833 53.5 -62.5l63.5 -58.5
c21.333 -20.333 39.333 -45.666 54 -75.999s22 -63.833 22 -100.5c0 -56.667 -14 -100.167 -42 -130.5s-68.667 -45.5 -122 -45.5s-94 15.167 -122 45.5s-42 73.833 -42 130.5v43h104v-50c0 -45.333 19 -68 57 -68s57 22.667 57 68c0 26 -7.33301 50.5 -22 73.5
s-32.5 43.833 -53.5 62.5l-63.5 58.5c-21.333 20.333 -39.333 45.666 -54 75.999s-22 63.833 -22 100.5zM142.002 737h-94l89 111h99l89 -111h-94l-45 55z" />
    <glyph glyph-name="scircumflex" unicode="&#x15d;" horiz-adv-x="374" 
d="M26 532c0 56.667 13.6689 100.167 41.002 130.5s67.666 45.5 120.999 45.5s93.666 -15.167 120.999 -45.5s41 -73.833 41 -130.5v-22h-104v29c0 46 -18.333 69 -55 69s-55 -23 -55 -69c0 -26 7.33301 -50.5 22 -73.5s32.5 -43.833 53.5 -62.5l63.5 -58.5
c21.333 -20.333 39.333 -45.666 54 -75.999s22 -63.833 22 -100.5c0 -56.667 -14 -100.167 -42 -130.5s-68.667 -45.5 -122 -45.5s-94 15.167 -122 45.5s-42 73.833 -42 130.5v43h104v-50c0 -45.333 19 -68 57 -68s57 22.667 57 68c0 26 -7.33301 50.5 -22 73.5
s-32.5 43.833 -53.5 62.5l-63.5 58.5c-21.333 20.333 -39.333 45.666 -54 75.999s-22 63.833 -22 100.5zM142.002 737h-94l89 111h99l89 -111h-94l-45 55z" />
    <glyph glyph-name="Scedilla" unicode="&#x15e;" horiz-adv-x="374" 
d="M26 532c0 56.667 13.6689 100.167 41.002 130.5s67.666 45.5 120.999 45.5s93.666 -15.167 120.999 -45.5s41 -73.833 41 -130.5v-22h-104v29c0 46 -18.333 69 -55 69s-55 -23 -55 -69c0 -26 7.33301 -50.5 22 -73.5s32.5 -43.833 53.5 -62.5l63.5 -58.5
c21.333 -20.333 39.333 -45.666 54 -75.999s22 -63.833 22 -100.5c0 -53.333 -12.333 -95 -37 -125s-61 -46.667 -109 -50v-32c25.333 0 44 -3.5 56 -10.5s18 -19.167 18 -36.5c0 -24.667 -8.33301 -41 -25 -49s-42 -12 -76 -12c-64 0 -96 19.333 -96 58v10h74v-8
c0 -13.333 7.33301 -20 22 -20c16.667 0 25 8 25 24c0 17.333 -12 26 -36 26h-10v51c-89.333 11.333 -134 69.333 -134 174v43h104v-50c0 -45.333 19 -68 57 -68s57 22.667 57 68c0 26 -7.33301 50.5 -22 73.5s-32.5 43.833 -53.5 62.5l-63.5 58.5
c-21.333 20.333 -39.333 45.666 -54 75.999s-22 63.833 -22 100.5z" />
    <glyph glyph-name="scedilla" unicode="&#x15f;" horiz-adv-x="374" 
d="M26 532c0 56.667 13.6689 100.167 41.002 130.5s67.666 45.5 120.999 45.5s93.666 -15.167 120.999 -45.5s41 -73.833 41 -130.5v-22h-104v29c0 46 -18.333 69 -55 69s-55 -23 -55 -69c0 -26 7.33301 -50.5 22 -73.5s32.5 -43.833 53.5 -62.5l63.5 -58.5
c21.333 -20.333 39.333 -45.666 54 -75.999s22 -63.833 22 -100.5c0 -53.333 -12.333 -95 -37 -125s-61 -46.667 -109 -50v-32c25.333 0 44 -3.5 56 -10.5s18 -19.167 18 -36.5c0 -24.667 -8.33301 -41 -25 -49s-42 -12 -76 -12c-64 0 -96 19.333 -96 58v10h74v-8
c0 -13.333 7.33301 -20 22 -20c16.667 0 25 8 25 24c0 17.333 -12 26 -36 26h-10v51c-89.333 11.333 -134 69.333 -134 174v43h104v-50c0 -45.333 19 -68 57 -68s57 22.667 57 68c0 26 -7.33301 50.5 -22 73.5s-32.5 43.833 -53.5 62.5l-63.5 58.5
c-21.333 20.333 -39.333 45.666 -54 75.999s-22 63.833 -22 100.5z" />
    <glyph glyph-name="Scaron" unicode="&#x160;" horiz-adv-x="374" 
d="M26 532c0 56.667 13.6689 100.167 41.002 130.5s67.666 45.5 120.999 45.5s93.666 -15.167 120.999 -45.5s41 -73.833 41 -130.5v-22h-104v29c0 46 -18.333 69 -55 69s-55 -23 -55 -69c0 -26 7.33301 -50.5 22 -73.5s32.5 -43.833 53.5 -62.5l63.5 -58.5
c21.333 -20.333 39.333 -45.666 54 -75.999s22 -63.833 22 -100.5c0 -56.667 -14 -100.167 -42 -130.5s-68.667 -45.5 -122 -45.5s-94 15.167 -122 45.5s-42 73.833 -42 130.5v43h104v-50c0 -45.333 19 -68 57 -68s57 22.667 57 68c0 26 -7.33301 50.5 -22 73.5
s-32.5 43.833 -53.5 62.5l-63.5 58.5c-21.333 20.333 -39.333 45.666 -54 75.999s-22 63.833 -22 100.5zM49.002 848h94l44 -56l45 56h94l-89 -111h-99z" />
    <glyph glyph-name="scaron" unicode="&#x161;" horiz-adv-x="374" 
d="M26 532c0 56.667 13.6689 100.167 41.002 130.5s67.666 45.5 120.999 45.5s93.666 -15.167 120.999 -45.5s41 -73.833 41 -130.5v-22h-104v29c0 46 -18.333 69 -55 69s-55 -23 -55 -69c0 -26 7.33301 -50.5 22 -73.5s32.5 -43.833 53.5 -62.5l63.5 -58.5
c21.333 -20.333 39.333 -45.666 54 -75.999s22 -63.833 22 -100.5c0 -56.667 -14 -100.167 -42 -130.5s-68.667 -45.5 -122 -45.5s-94 15.167 -122 45.5s-42 73.833 -42 130.5v43h104v-50c0 -45.333 19 -68 57 -68s57 22.667 57 68c0 26 -7.33301 50.5 -22 73.5
s-32.5 43.833 -53.5 62.5l-63.5 58.5c-21.333 20.333 -39.333 45.666 -54 75.999s-22 63.833 -22 100.5zM48.002 848h94l44 -56l45 56h94l-89 -111h-99z" />
    <glyph glyph-name="uni0162" unicode="&#x162;" horiz-adv-x="356" 
d="M88 -109l0.000976562 9.99902h64v-10c0 -12 7 -18 21 -18c17.333 0 26 8.66699 26 26c0 18.667 -12 28 -36 28h-11v73h-29v600h-115v100h340v-100h-115v-600h-31v-39c19.333 0 34.666 -5.16699 45.999 -15.5s17 -24.166 17 -41.499c0 -28 -8.5 -48.667 -25.5 -62
s-38.833 -20 -65.5 -20c-24 0 -44.333 6 -61 18s-25 29 -25 51z" />
    <glyph glyph-name="uni0163" unicode="&#x163;" horiz-adv-x="356" 
d="M88 -109l0.000976562 9.99902h64v-10c0 -12 7 -18 21 -18c17.333 0 26 8.66699 26 26c0 18.667 -12 28 -36 28h-11v73h-29v600h-115v100h340v-100h-115v-600h-31v-39c19.333 0 34.666 -5.16699 45.999 -15.5s17 -24.166 17 -41.499c0 -28 -8.5 -48.667 -25.5 -62
s-38.833 -20 -65.5 -20c-24 0 -44.333 6 -61 18s-25 29 -25 51z" />
    <glyph glyph-name="Tcaron" unicode="&#x164;" horiz-adv-x="356" 
d="M8 600v100h340v-100h-115v-600h-110v600h-115zM39 848h94l44 -56l45 56h94l-89 -111h-99z" />
    <glyph glyph-name="tcaron" unicode="&#x165;" horiz-adv-x="356" 
d="M8 600v100h340v-100h-115v-600h-110v600h-115zM39 848h94l44 -56l45 56h94l-89 -111h-99z" />
    <glyph glyph-name="Tbar" unicode="&#x166;" horiz-adv-x="356" 
d="M57 487h66v113h-115v100h340v-100h-115v-113h66v-82h-66v-405h-110v405h-66v82z" />
    <glyph glyph-name="tbar" unicode="&#x167;" horiz-adv-x="356" 
d="M57 487h66v113h-115v100h340v-100h-115v-113h66v-82h-66v-405h-110v405h-66v82z" />
    <glyph glyph-name="Utilde" unicode="&#x168;" horiz-adv-x="398" 
d="M35 700h110v-540c0 -45.333 19 -68 57 -68s57 22.667 57 68v540h104v-533c0 -56.667 -14 -100.167 -42 -130.5s-68.667 -45.5 -122 -45.5s-94 15.167 -122 45.5s-42 73.833 -42 130.5v533zM240 813c19.333 0 33.666 9.66699 42.999 29l53 -37
c-16.667 -45.333 -45 -68 -85 -68c-15.333 0 -32 4.16699 -50 12.5s-31.333 12.5 -40 12.5c-19.333 0 -33.666 -9.66699 -42.999 -29l-53 37c16.667 45.333 45 68 85 68c14.667 0 31 -4.16699 49 -12.5s31.667 -12.5 41 -12.5z" />
    <glyph glyph-name="utilde" unicode="&#x169;" horiz-adv-x="398" 
d="M35 700h110v-540c0 -45.333 19 -68 57 -68s57 22.667 57 68v540h104v-533c0 -56.667 -14 -100.167 -42 -130.5s-68.667 -45.5 -122 -45.5s-94 15.167 -122 45.5s-42 73.833 -42 130.5v533zM240 813c19.333 0 33.666 9.66699 42.999 29l53 -37
c-16.667 -45.333 -45 -68 -85 -68c-15.333 0 -32 4.16699 -50 12.5s-31.333 12.5 -40 12.5c-19.333 0 -33.666 -9.66699 -42.999 -29l-53 37c16.667 45.333 45 68 85 68c14.667 0 31 -4.16699 49 -12.5s31.667 -12.5 41 -12.5z" />
    <glyph glyph-name="Umacron" unicode="&#x16a;" horiz-adv-x="398" 
d="M35 700h110v-540c0 -45.333 19 -68 57 -68s57 22.667 57 68v540h104v-533c0 -56.667 -14 -100.167 -42 -130.5s-68.667 -45.5 -122 -45.5s-94 15.167 -122 45.5s-42 73.833 -42 130.5v533zM85 819h230v-78h-230v78z" />
    <glyph glyph-name="umacron" unicode="&#x16b;" horiz-adv-x="398" 
d="M35 700h110v-540c0 -45.333 19 -68 57 -68s57 22.667 57 68v540h104v-533c0 -56.667 -14 -100.167 -42 -130.5s-68.667 -45.5 -122 -45.5s-94 15.167 -122 45.5s-42 73.833 -42 130.5v533zM85 819h230v-78h-230v78z" />
    <glyph glyph-name="Ubreve" unicode="&#x16c;" horiz-adv-x="398" 
d="M35 700h110v-540c0 -45.333 19 -68 57 -68s57 22.667 57 68v540h104v-533c0 -56.667 -14 -100.167 -42 -130.5s-68.667 -45.5 -122 -45.5s-94 15.167 -122 45.5s-42 73.833 -42 130.5v533zM247 848h65.001c0 -36 -9.66699 -64.167 -29 -84.5s-47.333 -30.5 -84 -30.5
s-64.167 10.167 -82.5 30.5s-27.833 48.5 -28.5 84.5h65c1.33301 -18 5.66602 -30.333 12.999 -37s18.333 -10 33 -10c15.333 0 26.833 3.33301 34.5 10s12.167 19 13.5 37z" />
    <glyph glyph-name="ubreve" unicode="&#x16d;" horiz-adv-x="398" 
d="M35 700h110v-540c0 -45.333 19 -68 57 -68s57 22.667 57 68v540h104v-533c0 -56.667 -14 -100.167 -42 -130.5s-68.667 -45.5 -122 -45.5s-94 15.167 -122 45.5s-42 73.833 -42 130.5v533zM247 848h65.001c0 -36 -9.66699 -64.167 -29 -84.5s-47.333 -30.5 -84 -30.5
s-64.167 10.167 -82.5 30.5s-27.833 48.5 -28.5 84.5h65c1.33301 -18 5.66602 -30.333 12.999 -37s18.333 -10 33 -10c15.333 0 26.833 3.33301 34.5 10s12.167 19 13.5 37z" />
    <glyph glyph-name="Uring" unicode="&#x16e;" horiz-adv-x="398" 
d="M35 700h110v-540c0 -45.333 19 -68 57 -68s57 22.667 57 68v540h104v-533c0 -56.667 -14 -100.167 -42 -130.5s-68.667 -45.5 -122 -45.5s-94 15.167 -122 45.5s-42 73.833 -42 130.5v533zM120 814c0 22.667 7.66699 41.667 23 57s34.333 23 57 23
s41.667 -7.66699 57 -23s23 -34.333 23 -57s-7.66699 -41.667 -23 -57s-34.333 -23 -57 -23s-41.667 7.66699 -57 23s-23 34.333 -23 57zM170 814c0 -8.66699 2.83301 -15.834 8.5 -21.501s12.834 -8.5 21.501 -8.5s15.834 2.83301 21.501 8.5s8.5 12.834 8.5 21.501
s-2.83301 15.834 -8.5 21.501s-12.834 8.5 -21.501 8.5s-15.834 -2.83301 -21.501 -8.5s-8.5 -12.834 -8.5 -21.501z" />
    <glyph glyph-name="uring" unicode="&#x16f;" horiz-adv-x="398" 
d="M35 700h110v-540c0 -45.333 19 -68 57 -68s57 22.667 57 68v540h104v-533c0 -56.667 -14 -100.167 -42 -130.5s-68.667 -45.5 -122 -45.5s-94 15.167 -122 45.5s-42 73.833 -42 130.5v533zM120 814c0 22.667 7.66699 41.667 23 57s34.333 23 57 23
s41.667 -7.66699 57 -23s23 -34.333 23 -57s-7.66699 -41.667 -23 -57s-34.333 -23 -57 -23s-41.667 7.66699 -57 23s-23 34.333 -23 57zM170 814c0 -8.66699 2.83301 -15.834 8.5 -21.501s12.834 -8.5 21.501 -8.5s15.834 2.83301 21.501 8.5s8.5 12.834 8.5 21.501
s-2.83301 15.834 -8.5 21.501s-12.834 8.5 -21.501 8.5s-15.834 -2.83301 -21.501 -8.5s-8.5 -12.834 -8.5 -21.501z" />
    <glyph glyph-name="Uhungarumlaut" unicode="&#x170;" horiz-adv-x="398" 
d="M35 700h110v-540c0 -45.333 19 -68 57 -68s57 22.667 57 68v540h104v-533c0 -56.667 -14 -100.167 -42 -130.5s-68.667 -45.5 -122 -45.5s-94 15.167 -122 45.5s-42 73.833 -42 130.5v533zM134 848h100l-83 -111h-67zM264 848h101l-84 -111h-66z" />
    <glyph glyph-name="uhungarumlaut" unicode="&#x171;" horiz-adv-x="398" 
d="M35 700h110v-540c0 -45.333 19 -68 57 -68s57 22.667 57 68v540h104v-533c0 -56.667 -14 -100.167 -42 -130.5s-68.667 -45.5 -122 -45.5s-94 15.167 -122 45.5s-42 73.833 -42 130.5v533zM134 848h100l-83 -111h-67zM264 848h101l-84 -111h-66z" />
    <glyph glyph-name="Uogonek" unicode="&#x172;" horiz-adv-x="398" 
d="M35 700l110 -0.000976562v-540c0 -45.333 19 -68 57 -68s57 22.667 57 68v540h104v-533c0 -73.333 -21 -126.333 -63 -159c-22.667 -18 -34 -40 -34 -66c0 -8.66699 3.33301 -15.5 10 -20.5s15 -7.5 25 -7.5c9.33301 0 21.333 2 36 6v-56
c-18.667 -7.33301 -41.334 -11 -68.001 -11c-27.333 0 -48.666 5.33301 -63.999 16s-23 26 -23 46c0 30.667 19.333 57.334 58 80.001c-11.333 -2.66699 -25 -4 -41 -4c-53.333 0 -94 15.167 -122 45.5s-42 73.833 -42 130.5v533z" />
    <glyph glyph-name="uogonek" unicode="&#x173;" horiz-adv-x="398" 
d="M35 700l110 -0.000976562v-540c0 -45.333 19 -68 57 -68s57 22.667 57 68v540h104v-533c0 -73.333 -21 -126.333 -63 -159c-22.667 -18 -34 -40 -34 -66c0 -8.66699 3.33301 -15.5 10 -20.5s15 -7.5 25 -7.5c9.33301 0 21.333 2 36 6v-56
c-18.667 -7.33301 -41.334 -11 -68.001 -11c-27.333 0 -48.666 5.33301 -63.999 16s-23 26 -23 46c0 30.667 19.333 57.334 58 80.001c-11.333 -2.66699 -25 -4 -41 -4c-53.333 0 -94 15.167 -122 45.5s-42 73.833 -42 130.5v533z" />
    <glyph glyph-name="Wcircumflex" unicode="&#x174;" horiz-adv-x="563" 
d="M324 0l-40 373l-40 -373h-151l-78 700h107l59 -552l53 552h106l55 -556l57 556h96l-78 -700h-146zM237 737h-94l89 111h99l89 -111h-94l-45 55z" />
    <glyph glyph-name="wcircumflex" unicode="&#x175;" horiz-adv-x="563" 
d="M324 0l-40 373l-40 -373h-151l-78 700h107l59 -552l53 552h106l55 -556l57 556h96l-78 -700h-146zM237 737h-94l89 111h99l89 -111h-94l-45 55z" />
    <glyph glyph-name="Ycircumflex" unicode="&#x176;" 
d="M143 0v232l-139 468h115l84 -319l84 319h105l-139 -468v-232h-110zM158 737h-94l89 111h99l89 -111h-94l-45 55z" />
    <glyph glyph-name="ycircumflex" unicode="&#x177;" 
d="M143 0v232l-139 468h115l84 -319l84 319h105l-139 -468v-232h-110zM158 737h-94l89 111h99l89 -111h-94l-45 55z" />
    <glyph glyph-name="Ydieresis" unicode="&#x178;" 
d="M143 0v232l-139 468h115l84 -319l84 319h105l-139 -468v-232h-110zM78 833h96v-96h-96v96zM230 833h96v-96h-96v96z" />
    <glyph glyph-name="Zacute" unicode="&#x179;" horiz-adv-x="370" 
d="M33 700h312v-98l-209 -502h209v-100h-322v98l209 502h-199v100zM196 848h108l-102 -111h-74z" />
    <glyph glyph-name="zacute" unicode="&#x17a;" horiz-adv-x="370" 
d="M33 700h312v-98l-209 -502h209v-100h-322v98l209 502h-199v100zM196 848h108l-102 -111h-74z" />
    <glyph glyph-name="Zdotaccent" unicode="&#x17b;" horiz-adv-x="370" 
d="M33 700h312v-98l-209 -502h209v-100h-322v98l209 502h-199v100zM138 833h96v-96h-96v96z" />
    <glyph glyph-name="zdotaccent" unicode="&#x17c;" horiz-adv-x="370" 
d="M33 700h312v-98l-209 -502h209v-100h-322v98l209 502h-199v100zM138 833h96v-96h-96v96z" />
    <glyph glyph-name="Zcaron" unicode="&#x17d;" horiz-adv-x="370" 
d="M33 700h312v-98l-209 -502h209v-100h-322v98l209 502h-199v100zM48 848h94l44 -56l45 56h94l-89 -111h-99z" />
    <glyph glyph-name="zcaron" unicode="&#x17e;" horiz-adv-x="370" 
d="M33 700h312v-98l-209 -502h209v-100h-322v98l209 502h-199v100zM48 848h94l44 -56l45 56h94l-89 -111h-99z" />
    <glyph glyph-name="AEacute" unicode="&#x1fc;" horiz-adv-x="580" 
d="M252 0v127h-111l-32 -127h-105l187 700h361v-100h-190v-195h151v-100h-151v-205h190v-100h-300zM166 222h86v337zM300 848h108l-102 -111h-74z" />
    <glyph glyph-name="aeacute" unicode="&#x1fd;" horiz-adv-x="580" 
d="M252 0v127h-111l-32 -127h-105l187 700h361v-100h-190v-195h151v-100h-151v-205h190v-100h-300zM166 222h86v337zM300 848h108l-102 -111h-74z" />
    <glyph glyph-name="Oslashacute" unicode="&#x1fe;" 
d="M31 168l-0.000976562 363.999c0 56 14.333 99.333 43 130s70 46 124 46c40 0 73.333 -8.66699 100 -26l20 55l37 -13l-26 -71c24 -28.667 36 -69 36 -121v-364c0 -56 -14.333 -99.333 -43 -130s-70 -46 -124 -46c-41.333 0 -74.666 8.33301 -99.999 25l-20 -54l-37 13
l25 70c-23.333 30.667 -35 71.334 -35 122.001zM140.999 538.999v-288l112 309c-4.66699 32 -23 48 -55 48c-38 0 -57 -23 -57 -69zM197.999 91.999c38 0 57 23 57 69v288l-113 -309c5.33301 -32 24 -48 56 -48zM207.999 847.999h108l-102 -111h-74z" />
    <glyph glyph-name="oslashacute" unicode="&#x1ff;" 
d="M31 168l-0.000976562 363.999c0 56 14.333 99.333 43 130s70 46 124 46c40 0 73.333 -8.66699 100 -26l20 55l37 -13l-26 -71c24 -28.667 36 -69 36 -121v-364c0 -56 -14.333 -99.333 -43 -130s-70 -46 -124 -46c-41.333 0 -74.666 8.33301 -99.999 25l-20 -54l-37 13
l25 70c-23.333 30.667 -35 71.334 -35 122.001zM140.999 538.999v-288l112 309c-4.66699 32 -23 48 -55 48c-38 0 -57 -23 -57 -69zM197.999 91.999c38 0 57 23 57 69v288l-113 -309c5.33301 -32 24 -48 56 -48zM207.999 847.999h108l-102 -111h-74z" />
    <glyph glyph-name="uni0218" unicode="&#x218;" horiz-adv-x="374" 
d="M174 -125h-36v92h92v-82l-43 -64h-39zM26 532c0 56.667 13.6689 100.167 41.002 130.5s67.666 45.5 120.999 45.5s93.666 -15.167 120.999 -45.5s41 -73.833 41 -130.5v-22h-104v29c0 46 -18.333 69 -55 69s-55 -23 -55 -69c0 -26 7.33301 -50.5 22 -73.5
s32.5 -43.833 53.5 -62.5l63.5 -58.5c21.333 -20.333 39.333 -45.666 54 -75.999s22 -63.833 22 -100.5c0 -56.667 -14 -100.167 -42 -130.5s-68.667 -45.5 -122 -45.5s-94 15.167 -122 45.5s-42 73.833 -42 130.5v43h104v-50c0 -45.333 19 -68 57 -68s57 22.667 57 68
c0 26 -7.33301 50.5 -22 73.5s-32.5 43.833 -53.5 62.5l-63.5 58.5c-21.333 20.333 -39.333 45.666 -54 75.999s-22 63.833 -22 100.5z" />
    <glyph glyph-name="uni0219" unicode="&#x219;" horiz-adv-x="374" 
d="M174 -125h-36v92h92v-82l-43 -64h-39zM26 532c0 56.667 13.6689 100.167 41.002 130.5s67.666 45.5 120.999 45.5s93.666 -15.167 120.999 -45.5s41 -73.833 41 -130.5v-22h-104v29c0 46 -18.333 69 -55 69s-55 -23 -55 -69c0 -26 7.33301 -50.5 22 -73.5
s32.5 -43.833 53.5 -62.5l63.5 -58.5c21.333 -20.333 39.333 -45.666 54 -75.999s22 -63.833 22 -100.5c0 -56.667 -14 -100.167 -42 -130.5s-68.667 -45.5 -122 -45.5s-94 15.167 -122 45.5s-42 73.833 -42 130.5v43h104v-50c0 -45.333 19 -68 57 -68s57 22.667 57 68
c0 26 -7.33301 50.5 -22 73.5s-32.5 43.833 -53.5 62.5l-63.5 58.5c-21.333 20.333 -39.333 45.666 -54 75.999s-22 63.833 -22 100.5z" />
    <glyph glyph-name="uni021A" unicode="&#x21a;" horiz-adv-x="356" 
d="M8 600v100h340v-100h-115v-600h-110v600h-115zM168 -125h-36v92h92v-82l-43 -64h-39z" />
    <glyph glyph-name="uni021B" unicode="&#x21b;" horiz-adv-x="356" 
d="M8 600v100h340v-100h-115v-600h-110v600h-115zM168 -125h-36v92h92v-82l-43 -64h-39z" />
    <glyph glyph-name="uni0237" unicode="&#x237;" horiz-adv-x="256" 
d="M10 0v100c8 -0.666992 20.667 -1 38 -1c42 0 63 22.333 63 67v534h110v-526c0 -117.333 -52.667 -176 -158 -176c-23.333 0 -41 0.666992 -53 2z" />
    <glyph glyph-name="uni02BC" unicode="&#x2bc;" horiz-adv-x="186" 
d="M82 594h-42v106h106v-95l-48 -111h-45z" />
    <glyph glyph-name="circumflex" unicode="&#x2c6;" horiz-adv-x="250" 
d="M81 737h-94l89 111h99l89 -111h-94l-45 55z" />
    <glyph glyph-name="caron" unicode="&#x2c7;" horiz-adv-x="250" 
d="M-13 848h94l44 -56l45 56h94l-89 -111h-99z" />
    <glyph glyph-name="breve" unicode="&#x2d8;" horiz-adv-x="250" 
d="M172 848h65.001c0 -36 -9.66699 -64.167 -29 -84.5s-47.333 -30.5 -84 -30.5s-64.167 10.167 -82.5 30.5s-27.833 48.5 -28.5 84.5h65c1.33301 -18 5.66602 -30.333 12.999 -37s18.333 -10 33 -10c15.333 0 26.833 3.33301 34.5 10s12.167 19 13.5 37z" />
    <glyph glyph-name="dotaccent" unicode="&#x2d9;" horiz-adv-x="250" 
d="M77 833h96v-96h-96v96z" />
    <glyph glyph-name="ring" unicode="&#x2da;" horiz-adv-x="250" 
d="M45 814c0 22.667 7.66699 41.667 23 57s34.333 23 57 23s41.667 -7.66699 57 -23s23 -34.333 23 -57s-7.66699 -41.667 -23 -57s-34.333 -23 -57 -23s-41.667 7.66699 -57 23s-23 34.333 -23 57zM95 814c0 -8.66699 2.83301 -15.834 8.5 -21.501s12.834 -8.5 21.501 -8.5
s15.834 2.83301 21.501 8.5s8.5 12.834 8.5 21.501s-2.83301 15.834 -8.5 21.501s-12.834 8.5 -21.501 8.5s-15.834 -2.83301 -21.501 -8.5s-8.5 -12.834 -8.5 -21.501z" />
    <glyph glyph-name="ogonek" unicode="&#x2db;" horiz-adv-x="250" 
d="M123 4h43c-23.333 -18 -35 -38.667 -35 -62c0 -8.66699 3.33301 -15.5 10 -20.5s15 -7.5 25 -7.5c9.33301 0 21.333 2 36 6v-56c-18.667 -7.33301 -41.334 -11 -68.001 -11c-27.333 0 -48.666 5.33301 -63.999 16s-23 26 -23 46c0 35.333 25.333 65 76 89z" />
    <glyph glyph-name="tilde" unicode="&#x2dc;" horiz-adv-x="250" 
d="M165 813c19.333 0 33.666 9.66699 42.999 29l53 -37c-16.667 -45.333 -45 -68 -85 -68c-14.667 0 -31 4.16699 -49 12.5s-31.667 12.5 -41 12.5c-19.333 0 -33.666 -9.66699 -42.999 -29l-53 37c16.667 45.333 45 68 85 68c15.333 0 32 -4.16699 50 -12.5
s31.333 -12.5 40 -12.5z" />
    <glyph glyph-name="hungarumlaut" unicode="&#x2dd;" horiz-adv-x="250" 
d="M25 848h100l-83 -111h-67zM155 848h101l-84 -111h-66z" />
    <glyph glyph-name="uni0401" unicode="&#x401;" horiz-adv-x="368" 
d="M150 600v-195h151v-100h-151v-205h190v-100h-300v700h300v-100h-190zM65 833h96v-96h-96v96zM217 833h96v-96h-96v96z" />
    <glyph glyph-name="uni0410" unicode="&#x410;" horiz-adv-x="407" 
d="M284 700l112 -700h-111l-19 127h-135l-19 -127h-101l112 700h161zM198 576l-53 -354h106z" />
    <glyph glyph-name="uni0411" unicode="&#x411;" horiz-adv-x="415" 
d="M215 0h-174v700h308v-100h-198v-179h64c54.667 0 96 -14.833 124 -44.5s42 -72.5 42 -128.5v-75c0 -56 -14 -98.833 -42 -128.5s-69.333 -44.5 -124 -44.5zM151 100h64c37.333 0 56 22 56 66v89c0 44 -18.667 66 -56 66h-64v-221z" />
    <glyph glyph-name="uni0412" unicode="&#x412;" horiz-adv-x="406" 
d="M206 700c56.667 0 98 -13.167 124 -39.5s39 -66.833 39 -121.5v-25c0 -72 -23.667 -119 -71 -141c54.667 -21.333 82 -71.333 82 -150v-57c0 -54 -14.167 -95.167 -42.5 -123.5s-69.833 -42.5 -124.5 -42.5h-173v700h166zM199 315l-48.999 0.000976562v-215h63
c19.333 0 33.666 5.16699 42.999 15.5s14 28.166 14 53.499v61c0 32 -5.5 54.167 -16.5 66.5s-29.167 18.5 -54.5 18.5zM203.001 600.001h-53v-185h43c22 0 38.5 5.66699 49.5 17s16.5 30.333 16.5 57v39c0 48 -18.667 72 -56 72z" />
    <glyph glyph-name="uni0413" unicode="&#x413;" horiz-adv-x="365" 
d="M151 0h-110v700h290v-100h-180v-600z" />
    <glyph glyph-name="uni0414" unicode="&#x414;" horiz-adv-x="488" 
d="M467 -94h-109v94h-235v-94h-107v192h43c16 20 25 50.333 27 91l25 511h308v-602h48v-192zM214 600l-20 -409c-2.66699 -44.667 -13 -75.667 -31 -93h144v502h-93z" />
    <glyph glyph-name="uni0415" unicode="&#x415;" horiz-adv-x="368" 
d="M150 600v-195h151v-100h-151v-205h190v-100h-300v700h300v-100h-190z" />
    <glyph glyph-name="uni0416" unicode="&#x416;" horiz-adv-x="604" 
d="M357 700v-283l130 283h110l-135 -284l135 -416h-113l-100 310l-27 -53v-257h-109v257l-27 54l-100 -311h-113l136 413l-136 287h110l130 -283v283h109z" />
    <glyph glyph-name="uni0417" unicode="&#x417;" 
d="M252 489v38.999c0 30 -4.83301 50.833 -14.5 62.5s-23.834 17.5 -42.501 17.5c-38.667 0 -58 -23 -58 -69v-57h-101v52c0 56.667 13.667 99.834 41 129.501s67.666 44.5 120.999 44.5s94 -15.167 122 -45.5s42 -73.833 42 -130.5v-18
c0 -74.667 -25.667 -122.667 -77 -144c51.333 -22.667 77 -71.667 77 -147v-55c0 -56.667 -14 -100.167 -42 -130.5s-68.667 -45.5 -122 -45.5s-94 15.167 -122 45.5s-42 73.833 -42 130.5v77h104v-84c0 -46 19 -69 57 -69c18.667 0 32.834 5.83301 42.501 17.5
s14.5 32.167 14.5 61.5v55c0 32 -5.66699 54.833 -17 68.5s-29.666 20.5 -54.999 20.5h-27v100h33c22 0 38.5 5.66699 49.5 17s16.5 30.333 16.5 57z" />
    <glyph glyph-name="uni0418" unicode="&#x418;" horiz-adv-x="427" 
d="M245 321l-92 -321h-113v700h98v-443l40 154l90 289h121v-700h-99v493z" />
    <glyph glyph-name="uni0419" unicode="&#x419;" horiz-adv-x="429" 
d="M153 0l92 321l45 172v-493h99v700h-121l-90 -289l-40 -154v443h-98v-700h113zM266 856l67.002 0.00195312c0 -34.667 -10 -61.834 -30 -81.501s-49 -29.5 -87 -29.5c-37.333 0 -65.5 9.66699 -84.5 29s-29.167 46.666 -30.5 81.999h68
c1.33301 -18 5.66602 -30.167 12.999 -36.5s18.666 -9.5 33.999 -9.5c16 0 28 3.33301 36 10s12.667 18.667 14 36z" />
    <glyph glyph-name="uni041A" unicode="&#x41a;" horiz-adv-x="414" 
d="M291 0l-107 279l-34 -64v-215h-110v700h110v-305l144 305h110l-153 -312l153 -388h-113z" />
    <glyph glyph-name="uni041B" unicode="&#x41b;" horiz-adv-x="450" 
d="M9 -1v100.001c26.667 0 44.5 4.16699 53.5 12.5s13.833 28.166 14.5 59.499l18 529h311v-700h-112v600h-96l-12 -423c-2 -64 -15.333 -109.667 -40 -137s-64.667 -41 -120 -41h-17z" />
    <glyph glyph-name="uni041C" unicode="&#x41c;" horiz-adv-x="541" 
d="M192 700l81 -497l75 497h153v-700h-104v502l-76 -502h-104l-82 495v-495h-96v700h153z" />
    <glyph glyph-name="uni041D" unicode="&#x41d;" horiz-adv-x="427" 
d="M150 300v-300h-110v700h110v-300h125v300h112v-700h-112v300h-125z" />
    <glyph glyph-name="uni041E" unicode="&#x41e;" 
d="M141 539v-378c0 -46 19 -69 57 -69s57 23 57 69v378c0 46 -19 69 -57 69s-57 -23 -57 -69zM31 168v364c0 56 14.333 99.333 43 130s70 46 124 46s95.333 -15.333 124 -46s43 -74 43 -130v-364c0 -56 -14.333 -99.333 -43 -130s-70 -46 -124 -46s-95.333 15.333 -124 46
s-43 74 -43 130z" />
    <glyph glyph-name="uni041F" unicode="&#x41f;" horiz-adv-x="427" 
d="M150 600v-600h-110v700h347v-700h-112v600h-125z" />
    <glyph glyph-name="uni0420" unicode="&#x420;" horiz-adv-x="377" 
d="M202 700c109.333 0 164 -57.667 164 -173v-91c0 -115.333 -54.667 -173 -164 -173h-52v-263h-110v700h162zM202 600h-52v-237h52c18 0 31.5 5 40.5 15s13.5 27 13.5 51v105c0 24 -4.5 41 -13.5 51s-22.5 15 -40.5 15z" />
    <glyph glyph-name="uni0421" unicode="&#x421;" horiz-adv-x="386" 
d="M255 261h104v-93c0 -56.667 -14 -100.167 -42 -130.5s-68.667 -45.5 -122 -45.5s-94 15.167 -122 45.5s-42 73.833 -42 130.5v364c0 56.667 14 100.167 42 130.5s68.667 45.5 122 45.5s94 -15.167 122 -45.5s42 -73.833 42 -130.5v-68h-104v75c0 46 -19 69 -57 69
s-57 -23 -57 -69v-378c0 -45.333 19 -68 57 -68s57 22.667 57 68v100z" />
    <glyph glyph-name="uni0422" unicode="&#x422;" horiz-adv-x="356" 
d="M8 600v100h340v-100h-115v-600h-110v600h-115z" />
    <glyph glyph-name="uni0423" unicode="&#x423;" horiz-adv-x="408" 
d="M402 700l-117.999 -522c-14 -68 -36.333 -116 -67 -144s-82.334 -39.667 -155.001 -35v98c30 -2 52.667 1 68 9s25 24 29 48l1 6l-152 540h109l60 -239l34 -164l26 163l50 240h115z" />
    <glyph glyph-name="uni0424" unicode="&#x424;" horiz-adv-x="583" 
d="M236 0v79h-41c-109.333 0 -164 57.667 -164 173v191c0 115.333 54.667 173 164 173h41v84h108v-84h41c109.333 0 164 -57.667 164 -173v-191c0 -115.333 -54.667 -173 -164 -173h-41v-79h-108zM385 519h-41v-344h41c36.667 0 55 23.333 55 70v205c0 46 -18.333 69 -55 69
zM236 175v344h-41c-36.667 0 -55 -23 -55 -69v-205c0 -46.667 18.333 -70 55 -70h41z" />
    <glyph glyph-name="uni0425" unicode="&#x425;" horiz-adv-x="430" 
d="M305 700h102l-115 -340l123 -360h-116l-90 277l-91 -277h-103l123 360l-115 340h114l83 -258z" />
    <glyph glyph-name="uni0426" unicode="&#x426;" horiz-adv-x="455" 
d="M40 0v700h110v-600h125v600h112v-602h48v-192h-107v94h-288z" />
    <glyph glyph-name="uni0427" unicode="&#x427;" horiz-adv-x="415" 
d="M264 700l110 0.00195312v-700h-110v282c-24 -26 -55.333 -39 -94 -39c-44 0 -77.833 14.5 -101.5 43.5s-35.5 68.167 -35.5 117.5v296h110v-287c0 -22.667 6 -39.834 18 -51.501s27.333 -17.5 46 -17.5c18 0 32 6.16699 42 18.5s15 30.166 15 53.499v284z" />
    <glyph glyph-name="uni0428" unicode="&#x428;" horiz-adv-x="600" 
d="M560 0h-520v700h110v-600h95v600h110v-600h95v600h110v-700z" />
    <glyph glyph-name="uni0429" unicode="&#x429;" horiz-adv-x="629" 
d="M560 700v-602h49v-192h-107v94h-462v700h110v-600h95v600h110v-600h95v600h110z" />
    <glyph glyph-name="uni042A" unicode="&#x42a;" horiz-adv-x="439" 
d="M8 600v100h189v-263h52c109.333 0 164 -57.667 164 -173v-91c0 -115.333 -54.667 -173 -164 -173h-162v600h-79zM197 100h52c18 0 31.5 5 40.5 15s13.5 27 13.5 51v105c0 24 -4.5 41 -13.5 51s-22.5 15 -40.5 15h-52v-237z" />
    <glyph glyph-name="uni042B" unicode="&#x42b;" horiz-adv-x="579" 
d="M202 0h-162v700h110v-263h52c109.333 0 164 -57.667 164 -173v-91c0 -115.333 -54.667 -173 -164 -173zM150 100h52c18 0 31.5 5 40.5 15s13.5 27 13.5 51v105c0 24 -4.5 41 -13.5 51s-22.5 15 -40.5 15h-52v-237zM539 0h-110v700h110v-700z" />
    <glyph glyph-name="uni042C" unicode="&#x42c;" horiz-adv-x="392" 
d="M202 0h-162v700h110v-263h52c109.333 0 164 -57.667 164 -173v-91c0 -115.333 -54.667 -173 -164 -173zM150 100h52c18 0 31.5 5 40.5 15s13.5 27 13.5 51v105c0 24 -4.5 41 -13.5 51s-22.5 15 -40.5 15h-52v-237z" />
    <glyph glyph-name="uni042D" unicode="&#x42d;" horiz-adv-x="386" 
d="M26 251h104.001v-90c0 -45.333 19 -68 57 -68s57 22.667 57 68v151h-101v100h101v127c0 46 -19 69 -57 69s-57 -23 -57 -69v-66h-102v59c0 56.667 13.667 100.167 41 130.5s67.666 45.5 120.999 45.5s94 -15.167 122 -45.5s42 -73.833 42 -130.5v-364
c0 -56.667 -14 -100.167 -42 -130.5s-68.667 -45.5 -122 -45.5s-94 15.167 -122 45.5s-42 73.833 -42 130.5v83z" />
    <glyph glyph-name="uni042E" unicode="&#x42e;" horiz-adv-x="599" 
d="M232 168v132h-82v-300h-110v700h110v-300h82v132c0 56 14.333 99.333 43 130s70 46 124 46s95.333 -15.333 124 -46s43 -74 43 -130v-364c0 -56 -14.333 -99.333 -43 -130s-70 -46 -124 -46s-95.333 15.333 -124 46s-43 74 -43 130zM342 539v-378c0 -46 19 -69 57 -69
s57 23 57 69v378c0 46 -19 69 -57 69s-57 -23 -57 -69z" />
    <glyph glyph-name="uni042F" unicode="&#x42f;" horiz-adv-x="402" 
d="M132 0l-112.001 -0.000976562c8 18.667 12 47 12 85v108c0 78.667 24.333 128.334 73 149.001c-48 22.667 -72 70 -72 142v55c0 54.667 13 95.167 39 121.5s67.333 39.5 124 39.5h166v-700h-110v285h-38c-25.333 0 -43.666 -6.83301 -54.999 -20.5s-17 -36.5 -17 -68.5
v-110c0 -37.333 -3.33301 -66 -10 -86zM251.999 599.999h-53c-37.333 0 -56 -24 -56 -72v-69c0 -26.667 5.5 -45.667 16.5 -57s27.5 -17 49.5 -17h43v215z" />
    <glyph glyph-name="uni0430" unicode="&#x430;" horiz-adv-x="407" 
d="M284 700l112 -700h-111l-19 127h-135l-19 -127h-101l112 700h161zM198 576l-53 -354h106z" />
    <glyph glyph-name="uni0431" unicode="&#x431;" horiz-adv-x="415" 
d="M215 0h-174v700h308v-100h-198v-179h64c54.667 0 96 -14.833 124 -44.5s42 -72.5 42 -128.5v-75c0 -56 -14 -98.833 -42 -128.5s-69.333 -44.5 -124 -44.5zM151 100h64c37.333 0 56 22 56 66v89c0 44 -18.667 66 -56 66h-64v-221z" />
    <glyph glyph-name="uni0432" unicode="&#x432;" horiz-adv-x="406" 
d="M206 700c56.667 0 98 -13.167 124 -39.5s39 -66.833 39 -121.5v-25c0 -72 -23.667 -119 -71 -141c54.667 -21.333 82 -71.333 82 -150v-57c0 -54 -14.167 -95.167 -42.5 -123.5s-69.833 -42.5 -124.5 -42.5h-173v700h166zM199 315l-48.999 0.000976562v-215h63
c19.333 0 33.666 5.16699 42.999 15.5s14 28.166 14 53.499v61c0 32 -5.5 54.167 -16.5 66.5s-29.167 18.5 -54.5 18.5zM203.001 600.001h-53v-185h43c22 0 38.5 5.66699 49.5 17s16.5 30.333 16.5 57v39c0 48 -18.667 72 -56 72z" />
    <glyph glyph-name="uni0433" unicode="&#x433;" horiz-adv-x="365" 
d="M151 0h-110v700h290v-100h-180v-600z" />
    <glyph glyph-name="uni0434" unicode="&#x434;" horiz-adv-x="488" 
d="M467 -94h-109v94h-235v-94h-107v192h43c16 20 25 50.333 27 91l25 511h308v-602h48v-192zM214 600l-20 -409c-2.66699 -44.667 -13 -75.667 -31 -93h144v502h-93z" />
    <glyph glyph-name="uni0435" unicode="&#x435;" horiz-adv-x="368" 
d="M150 600v-195h151v-100h-151v-205h190v-100h-300v700h300v-100h-190z" />
    <glyph glyph-name="uni0436" unicode="&#x436;" horiz-adv-x="604" 
d="M357 700v-283l130 283h110l-135 -284l135 -416h-113l-100 310l-27 -53v-257h-109v257l-27 54l-100 -311h-113l136 413l-136 287h110l130 -283v283h109z" />
    <glyph glyph-name="uni0437" unicode="&#x437;" 
d="M252 489v38.999c0 30 -4.83301 50.833 -14.5 62.5s-23.834 17.5 -42.501 17.5c-38.667 0 -58 -23 -58 -69v-57h-101v52c0 56.667 13.667 99.834 41 129.501s67.666 44.5 120.999 44.5s94 -15.167 122 -45.5s42 -73.833 42 -130.5v-18
c0 -74.667 -25.667 -122.667 -77 -144c51.333 -22.667 77 -71.667 77 -147v-55c0 -56.667 -14 -100.167 -42 -130.5s-68.667 -45.5 -122 -45.5s-94 15.167 -122 45.5s-42 73.833 -42 130.5v77h104v-84c0 -46 19 -69 57 -69c18.667 0 32.834 5.83301 42.501 17.5
s14.5 32.167 14.5 61.5v55c0 32 -5.66699 54.833 -17 68.5s-29.666 20.5 -54.999 20.5h-27v100h33c22 0 38.5 5.66699 49.5 17s16.5 30.333 16.5 57z" />
    <glyph glyph-name="uni0438" unicode="&#x438;" horiz-adv-x="427" 
d="M245 321l-92 -321h-113v700h98v-443l40 154l90 289h121v-700h-99v493z" />
    <glyph glyph-name="uni0439" unicode="&#x439;" horiz-adv-x="429" 
d="M153 0l92 321l45 172v-493h99v700h-121l-90 -289l-40 -154v443h-98v-700h113zM266 856l67.002 0.00195312c0 -34.667 -10 -61.834 -30 -81.501s-49 -29.5 -87 -29.5c-37.333 0 -65.5 9.66699 -84.5 29s-29.167 46.666 -30.5 81.999h68
c1.33301 -18 5.66602 -30.167 12.999 -36.5s18.666 -9.5 33.999 -9.5c16 0 28 3.33301 36 10s12.667 18.667 14 36z" />
    <glyph glyph-name="uni043A" unicode="&#x43a;" horiz-adv-x="414" 
d="M291 0l-107 279l-34 -64v-215h-110v700h110v-305l144 305h110l-153 -312l153 -388h-113z" />
    <glyph glyph-name="uni043B" unicode="&#x43b;" horiz-adv-x="450" 
d="M9 -1v100.001c26.667 0 44.5 4.16699 53.5 12.5s13.833 28.166 14.5 59.499l18 529h311v-700h-112v600h-96l-12 -423c-2 -64 -15.333 -109.667 -40 -137s-64.667 -41 -120 -41h-17z" />
    <glyph glyph-name="uni043C" unicode="&#x43c;" horiz-adv-x="541" 
d="M192 700l81 -497l75 497h153v-700h-104v502l-76 -502h-104l-82 495v-495h-96v700h153z" />
    <glyph glyph-name="uni043D" unicode="&#x43d;" horiz-adv-x="427" 
d="M150 300v-300h-110v700h110v-300h125v300h112v-700h-112v300h-125z" />
    <glyph glyph-name="uni043E" unicode="&#x43e;" 
d="M141 539v-378c0 -46 19 -69 57 -69s57 23 57 69v378c0 46 -19 69 -57 69s-57 -23 -57 -69zM31 168v364c0 56 14.333 99.333 43 130s70 46 124 46s95.333 -15.333 124 -46s43 -74 43 -130v-364c0 -56 -14.333 -99.333 -43 -130s-70 -46 -124 -46s-95.333 15.333 -124 46
s-43 74 -43 130z" />
    <glyph glyph-name="uni043F" unicode="&#x43f;" horiz-adv-x="427" 
d="M150 600v-600h-110v700h347v-700h-112v600h-125z" />
    <glyph glyph-name="uni0440" unicode="&#x440;" horiz-adv-x="377" 
d="M202 700c109.333 0 164 -57.667 164 -173v-91c0 -115.333 -54.667 -173 -164 -173h-52v-263h-110v700h162zM202 600h-52v-237h52c18 0 31.5 5 40.5 15s13.5 27 13.5 51v105c0 24 -4.5 41 -13.5 51s-22.5 15 -40.5 15z" />
    <glyph glyph-name="uni0441" unicode="&#x441;" horiz-adv-x="386" 
d="M255 261h104v-93c0 -56.667 -14 -100.167 -42 -130.5s-68.667 -45.5 -122 -45.5s-94 15.167 -122 45.5s-42 73.833 -42 130.5v364c0 56.667 14 100.167 42 130.5s68.667 45.5 122 45.5s94 -15.167 122 -45.5s42 -73.833 42 -130.5v-68h-104v75c0 46 -19 69 -57 69
s-57 -23 -57 -69v-378c0 -45.333 19 -68 57 -68s57 22.667 57 68v100z" />
    <glyph glyph-name="uni0442" unicode="&#x442;" horiz-adv-x="356" 
d="M8 600v100h340v-100h-115v-600h-110v600h-115z" />
    <glyph glyph-name="uni0443" unicode="&#x443;" horiz-adv-x="408" 
d="M402 700l-117.999 -522c-14 -68 -36.333 -116 -67 -144s-82.334 -39.667 -155.001 -35v98c30 -2 52.667 1 68 9s25 24 29 48l1 6l-152 540h109l60 -239l34 -164l26 163l50 240h115z" />
    <glyph glyph-name="uni0444" unicode="&#x444;" horiz-adv-x="583" 
d="M236 0v79h-41c-109.333 0 -164 57.667 -164 173v191c0 115.333 54.667 173 164 173h41v84h108v-84h41c109.333 0 164 -57.667 164 -173v-191c0 -115.333 -54.667 -173 -164 -173h-41v-79h-108zM385 519h-41v-344h41c36.667 0 55 23.333 55 70v205c0 46 -18.333 69 -55 69
zM236 175v344h-41c-36.667 0 -55 -23 -55 -69v-205c0 -46.667 18.333 -70 55 -70h41z" />
    <glyph glyph-name="uni0445" unicode="&#x445;" horiz-adv-x="430" 
d="M305 700h102l-115 -340l123 -360h-116l-90 277l-91 -277h-103l123 360l-115 340h114l83 -258z" />
    <glyph glyph-name="uni0446" unicode="&#x446;" horiz-adv-x="455" 
d="M40 0v700h110v-600h125v600h112v-602h48v-192h-107v94h-288z" />
    <glyph glyph-name="uni0447" unicode="&#x447;" horiz-adv-x="415" 
d="M264 700l110 0.00195312v-700h-110v282c-24 -26 -55.333 -39 -94 -39c-44 0 -77.833 14.5 -101.5 43.5s-35.5 68.167 -35.5 117.5v296h110v-287c0 -22.667 6 -39.834 18 -51.501s27.333 -17.5 46 -17.5c18 0 32 6.16699 42 18.5s15 30.166 15 53.499v284z" />
    <glyph glyph-name="uni0448" unicode="&#x448;" horiz-adv-x="600" 
d="M560 0h-520v700h110v-600h95v600h110v-600h95v600h110v-700z" />
    <glyph glyph-name="uni0449" unicode="&#x449;" horiz-adv-x="629" 
d="M560 700v-602h49v-192h-107v94h-462v700h110v-600h95v600h110v-600h95v600h110z" />
    <glyph glyph-name="uni044A" unicode="&#x44a;" horiz-adv-x="439" 
d="M8 600v100h189v-263h52c109.333 0 164 -57.667 164 -173v-91c0 -115.333 -54.667 -173 -164 -173h-162v600h-79zM197 100h52c18 0 31.5 5 40.5 15s13.5 27 13.5 51v105c0 24 -4.5 41 -13.5 51s-22.5 15 -40.5 15h-52v-237z" />
    <glyph glyph-name="uni044B" unicode="&#x44b;" horiz-adv-x="579" 
d="M202 0h-162v700h110v-263h52c109.333 0 164 -57.667 164 -173v-91c0 -115.333 -54.667 -173 -164 -173zM150 100h52c18 0 31.5 5 40.5 15s13.5 27 13.5 51v105c0 24 -4.5 41 -13.5 51s-22.5 15 -40.5 15h-52v-237zM539 0h-110v700h110v-700z" />
    <glyph glyph-name="uni044C" unicode="&#x44c;" horiz-adv-x="392" 
d="M202 0h-162v700h110v-263h52c109.333 0 164 -57.667 164 -173v-91c0 -115.333 -54.667 -173 -164 -173zM150 100h52c18 0 31.5 5 40.5 15s13.5 27 13.5 51v105c0 24 -4.5 41 -13.5 51s-22.5 15 -40.5 15h-52v-237z" />
    <glyph glyph-name="uni044D" unicode="&#x44d;" horiz-adv-x="386" 
d="M26 251h104.001v-90c0 -45.333 19 -68 57 -68s57 22.667 57 68v151h-101v100h101v127c0 46 -19 69 -57 69s-57 -23 -57 -69v-66h-102v59c0 56.667 13.667 100.167 41 130.5s67.666 45.5 120.999 45.5s94 -15.167 122 -45.5s42 -73.833 42 -130.5v-364
c0 -56.667 -14 -100.167 -42 -130.5s-68.667 -45.5 -122 -45.5s-94 15.167 -122 45.5s-42 73.833 -42 130.5v83z" />
    <glyph glyph-name="uni044E" unicode="&#x44e;" horiz-adv-x="599" 
d="M232 168v132h-82v-300h-110v700h110v-300h82v132c0 56 14.333 99.333 43 130s70 46 124 46s95.333 -15.333 124 -46s43 -74 43 -130v-364c0 -56 -14.333 -99.333 -43 -130s-70 -46 -124 -46s-95.333 15.333 -124 46s-43 74 -43 130zM342 539v-378c0 -46 19 -69 57 -69
s57 23 57 69v378c0 46 -19 69 -57 69s-57 -23 -57 -69z" />
    <glyph glyph-name="uni044F" unicode="&#x44f;" horiz-adv-x="402" 
d="M132 0l-112.001 -0.000976562c8 18.667 12 47 12 85v108c0 78.667 24.333 128.334 73 149.001c-48 22.667 -72 70 -72 142v55c0 54.667 13 95.167 39 121.5s67.333 39.5 124 39.5h166v-700h-110v285h-38c-25.333 0 -43.666 -6.83301 -54.999 -20.5s-17 -36.5 -17 -68.5
v-110c0 -37.333 -3.33301 -66 -10 -86zM251.999 599.999h-53c-37.333 0 -56 -24 -56 -72v-69c0 -26.667 5.5 -45.667 16.5 -57s27.5 -17 49.5 -17h43v215z" />
    <glyph glyph-name="uni0451" unicode="&#x451;" horiz-adv-x="368" 
d="M150 600v-195h151v-100h-151v-205h190v-100h-300v700h300v-100h-190zM65 833h96v-96h-96v96zM217 833h96v-96h-96v96z" />
    <glyph glyph-name="uni1E02" unicode="&#x1e02;" horiz-adv-x="406" 
d="M206 700c56.667 0 98 -13.167 124 -39.5s39 -66.833 39 -121.5v-25c0 -72 -23.667 -119 -71 -141c54.667 -21.333 82 -71.333 82 -150v-57c0 -54 -14.167 -95.167 -42.5 -123.5s-69.833 -42.5 -124.5 -42.5h-173v700h166zM199 315l-48.999 0.000976562v-215h63
c19.333 0 33.666 5.16699 42.999 15.5s14 28.166 14 53.499v61c0 32 -5.5 54.167 -16.5 66.5s-29.167 18.5 -54.5 18.5zM203.001 600.001h-53v-185h43c22 0 38.5 5.66699 49.5 17s16.5 30.333 16.5 57v39c0 48 -18.667 72 -56 72zM138.001 833.001h96v-96h-96v96z" />
    <glyph glyph-name="uni1E03" unicode="&#x1e03;" horiz-adv-x="406" 
d="M206 700c56.667 0 98 -13.167 124 -39.5s39 -66.833 39 -121.5v-25c0 -72 -23.667 -119 -71 -141c54.667 -21.333 82 -71.333 82 -150v-57c0 -54 -14.167 -95.167 -42.5 -123.5s-69.833 -42.5 -124.5 -42.5h-173v700h166zM199 315l-48.999 0.000976562v-215h63
c19.333 0 33.666 5.16699 42.999 15.5s14 28.166 14 53.499v61c0 32 -5.5 54.167 -16.5 66.5s-29.167 18.5 -54.5 18.5zM203.001 600.001h-53v-185h43c22 0 38.5 5.66699 49.5 17s16.5 30.333 16.5 57v39c0 48 -18.667 72 -56 72zM138.001 833.001h96v-96h-96v96z" />
    <glyph glyph-name="uni1E0A" unicode="&#x1e0a;" horiz-adv-x="408" 
d="M40 0v700h174c109.333 0 164 -57.667 164 -173v-354c0 -115.333 -54.667 -173 -164 -173h-174zM212 600h-62v-500h62c37.333 0 56 22.667 56 68v364c0 45.333 -18.667 68 -56 68zM146 833h96v-96h-96v96z" />
    <glyph glyph-name="uni1E0B" unicode="&#x1e0b;" horiz-adv-x="408" 
d="M40 0v700h174c109.333 0 164 -57.667 164 -173v-354c0 -115.333 -54.667 -173 -164 -173h-174zM212 600h-62v-500h62c37.333 0 56 22.667 56 68v364c0 45.333 -18.667 68 -56 68zM146 833h96v-96h-96v96z" />
    <glyph glyph-name="uni1E1E" unicode="&#x1e1e;" horiz-adv-x="344" 
d="M150 600v-211h142v-100h-142v-289h-110v700h291v-100h-181zM134 833h96v-96h-96v96z" />
    <glyph glyph-name="uni1E1F" unicode="&#x1e1f;" horiz-adv-x="344" 
d="M150 600v-211h142v-100h-142v-289h-110v700h291v-100h-181zM134 833h96v-96h-96v96z" />
    <glyph glyph-name="uni1E40" unicode="&#x1e40;" horiz-adv-x="541" 
d="M192 700l81 -497l75 497h153v-700h-104v502l-76 -502h-104l-82 495v-495h-96v700h153zM222 833h96v-96h-96v96z" />
    <glyph glyph-name="uni1E41" unicode="&#x1e41;" horiz-adv-x="541" 
d="M192 700l81 -497l75 497h153v-700h-104v502l-76 -502h-104l-82 495v-495h-96v700h153zM222 833h96v-96h-96v96z" />
    <glyph glyph-name="uni1E56" unicode="&#x1e56;" horiz-adv-x="377" 
d="M202 700c109.333 0 164 -57.667 164 -173v-91c0 -115.333 -54.667 -173 -164 -173h-52v-263h-110v700h162zM202 600h-52v-237h52c18 0 31.5 5 40.5 15s13.5 27 13.5 51v105c0 24 -4.5 41 -13.5 51s-22.5 15 -40.5 15zM142 833h96v-96h-96v96z" />
    <glyph glyph-name="uni1E57" unicode="&#x1e57;" horiz-adv-x="377" 
d="M202 700c109.333 0 164 -57.667 164 -173v-91c0 -115.333 -54.667 -173 -164 -173h-52v-263h-110v700h162zM202 600h-52v-237h52c18 0 31.5 5 40.5 15s13.5 27 13.5 51v105c0 24 -4.5 41 -13.5 51s-22.5 15 -40.5 15zM142 833h96v-96h-96v96z" />
    <glyph glyph-name="uni1E60" unicode="&#x1e60;" horiz-adv-x="374" 
d="M26 532c0 56.667 13.6689 100.167 41.002 130.5s67.666 45.5 120.999 45.5s93.666 -15.167 120.999 -45.5s41 -73.833 41 -130.5v-22h-104v29c0 46 -18.333 69 -55 69s-55 -23 -55 -69c0 -26 7.33301 -50.5 22 -73.5s32.5 -43.833 53.5 -62.5l63.5 -58.5
c21.333 -20.333 39.333 -45.666 54 -75.999s22 -63.833 22 -100.5c0 -56.667 -14 -100.167 -42 -130.5s-68.667 -45.5 -122 -45.5s-94 15.167 -122 45.5s-42 73.833 -42 130.5v43h104v-50c0 -45.333 19 -68 57 -68s57 22.667 57 68c0 26 -7.33301 50.5 -22 73.5
s-32.5 43.833 -53.5 62.5l-63.5 58.5c-21.333 20.333 -39.333 45.666 -54 75.999s-22 63.833 -22 100.5zM139.002 833h96v-96h-96v96z" />
    <glyph glyph-name="uni1E61" unicode="&#x1e61;" horiz-adv-x="374" 
d="M26 532c0 56.667 13.6689 100.167 41.002 130.5s67.666 45.5 120.999 45.5s93.666 -15.167 120.999 -45.5s41 -73.833 41 -130.5v-22h-104v29c0 46 -18.333 69 -55 69s-55 -23 -55 -69c0 -26 7.33301 -50.5 22 -73.5s32.5 -43.833 53.5 -62.5l63.5 -58.5
c21.333 -20.333 39.333 -45.666 54 -75.999s22 -63.833 22 -100.5c0 -56.667 -14 -100.167 -42 -130.5s-68.667 -45.5 -122 -45.5s-94 15.167 -122 45.5s-42 73.833 -42 130.5v43h104v-50c0 -45.333 19 -68 57 -68s57 22.667 57 68c0 26 -7.33301 50.5 -22 73.5
s-32.5 43.833 -53.5 62.5l-63.5 58.5c-21.333 20.333 -39.333 45.666 -54 75.999s-22 63.833 -22 100.5zM139.002 833h96v-96h-96v96z" />
    <glyph glyph-name="uni1E6A" unicode="&#x1e6a;" horiz-adv-x="356" 
d="M8 600v100h340v-100h-115v-600h-110v600h-115zM130 833h96v-96h-96v96z" />
    <glyph glyph-name="uni1E6B" unicode="&#x1e6b;" horiz-adv-x="356" 
d="M8 600v100h340v-100h-115v-600h-110v600h-115zM130 833h96v-96h-96v96z" />
    <glyph glyph-name="Wgrave" unicode="&#x1e80;" horiz-adv-x="563" 
d="M324 0l-40 373l-40 -373h-151l-78 700h107l59 -552l53 552h106l55 -556l57 556h96l-78 -700h-146zM161 848h113l68 -111h-79z" />
    <glyph glyph-name="wgrave" unicode="&#x1e81;" horiz-adv-x="563" 
d="M324 0l-40 373l-40 -373h-151l-78 700h107l59 -552l53 552h106l55 -556l57 556h96l-78 -700h-146zM161 848h113l68 -111h-79z" />
    <glyph glyph-name="Wacute" unicode="&#x1e82;" horiz-adv-x="563" 
d="M324 0l-40 373l-40 -373h-151l-78 700h107l59 -552l53 552h106l55 -556l57 556h96l-78 -700h-146zM291 848h108l-102 -111h-74z" />
    <glyph glyph-name="wacute" unicode="&#x1e83;" horiz-adv-x="563" 
d="M324 0l-40 373l-40 -373h-151l-78 700h107l59 -552l53 552h106l55 -556l57 556h96l-78 -700h-146zM291 848h108l-102 -111h-74z" />
    <glyph glyph-name="Wdieresis" unicode="&#x1e84;" horiz-adv-x="563" 
d="M324 0l-40 373l-40 -373h-151l-78 700h107l59 -552l53 552h106l55 -556l57 556h96l-78 -700h-146zM157 833h96v-96h-96v96zM309 833h96v-96h-96v96z" />
    <glyph glyph-name="wdieresis" unicode="&#x1e85;" horiz-adv-x="563" 
d="M324 0l-40 373l-40 -373h-151l-78 700h107l59 -552l53 552h106l55 -556l57 556h96l-78 -700h-146zM157 833h96v-96h-96v96zM309 833h96v-96h-96v96z" />
    <glyph glyph-name="Ygrave" unicode="&#x1ef2;" 
d="M143 0v232l-139 468h115l84 -319l84 319h105l-139 -468v-232h-110zM82 848h113l68 -111h-79z" />
    <glyph glyph-name="ygrave" unicode="&#x1ef3;" 
d="M143 0v232l-139 468h115l84 -319l84 319h105l-139 -468v-232h-110zM82 848h113l68 -111h-79z" />
    <glyph glyph-name="figuredash" unicode="&#x2012;" 
d="M0 305v90h396v-90h-396z" />
    <glyph glyph-name="endash" unicode="&#x2013;" horiz-adv-x="500" 
d="M0 305v90h500v-90h-500z" />
    <glyph glyph-name="emdash" unicode="&#x2014;" horiz-adv-x="1000" 
d="M0 305v90h1000v-90h-1000z" />
    <glyph glyph-name="quoteleft" unicode="&#x2018;" horiz-adv-x="186" 
d="M104 600h42v-106h-106v95l48 111h45z" />
    <glyph glyph-name="quoteright" unicode="&#x2019;" horiz-adv-x="186" 
d="M82 594h-42v106h106v-95l-48 -111h-45z" />
    <glyph glyph-name="quotesinglbase" unicode="&#x201a;" horiz-adv-x="186" 
d="M82 0h-42v106h106v-95l-48 -111h-45z" />
    <glyph glyph-name="quotedblleft" unicode="&#x201c;" horiz-adv-x="332" 
d="M104 600h42v-106h-106v95l48 111h45zM250 600h42v-106h-106v95l48 111h45z" />
    <glyph glyph-name="quotedblright" unicode="&#x201d;" horiz-adv-x="332" 
d="M82 594h-42v106h106v-95l-48 -111h-45zM228 594h-42v106h106v-95l-48 -111h-45z" />
    <glyph glyph-name="quotedblbase" unicode="&#x201e;" horiz-adv-x="332" 
d="M82 0h-42v106h106v-95l-48 -111h-45zM228 0h-42v106h106v-95l-48 -111h-45z" />
    <glyph glyph-name="dagger" unicode="&#x2020;" 
d="M25 440v85h128v175h90v-175h128v-85h-128v-505h-90v505h-128z" />
    <glyph glyph-name="daggerdbl" unicode="&#x2021;" 
d="M25 440v85h128v175h90v-175h128v-85h-128v-245h128v-85h-128v-175h-90v175h-128v85h128v245h-128z" />
    <glyph glyph-name="bullet" unicode="&#x2022;" 
d="M59 350c0 38.667 13.5 71.5 40.5 98.5s59.833 40.5 98.5 40.5s71.5 -13.5 98.5 -40.5s40.5 -59.833 40.5 -98.5s-13.5 -71.5 -40.5 -98.5s-59.833 -40.5 -98.5 -40.5s-71.5 13.5 -98.5 40.5s-40.5 59.833 -40.5 98.5z" />
    <glyph glyph-name="ellipsis" unicode="&#x2026;" horiz-adv-x="478" 
d="M40 106h106v-106h-106v106zM186 106h106v-106h-106v106zM332 106h106v-106h-106v106z" />
    <glyph glyph-name="perthousand" unicode="&#x2030;" horiz-adv-x="883" 
d="M104 598v-240c0 -29.333 12 -44 36 -44s36 14.667 36 44v240c0 29.333 -12 44 -36 44s-36 -14.667 -36 -44zM34 363v230c0 36 9 63.667 27 83s44.333 29 79 29s61 -9.66699 79 -29s27 -47 27 -83v-230c0 -36 -9 -63.667 -27 -83s-44.333 -29 -79 -29s-61 9.66699 -79 29
s-27 47 -27 83zM140 0l276 700h65l-276 -700h-65zM451 342v-240c0 -29.333 12 -44 36 -44s36 14.667 36 44v240c0 29.333 -12 44 -36 44s-36 -14.667 -36 -44zM381 107v230c0 36 9 63.667 27 83s44.333 29 79 29s61 -9.66699 79 -29s27 -47 27 -83v-230
c0 -36 -9 -63.667 -27 -83s-44.333 -29 -79 -29s-61 9.66699 -79 29s-27 47 -27 83zM707 342v-240c0 -29.333 12 -44 36 -44s36 14.667 36 44v240c0 29.333 -12 44 -36 44s-36 -14.667 -36 -44zM637 107v230c0 36 9 63.667 27 83s44.333 29 79 29s61 -9.66699 79 -29
s27 -47 27 -83v-230c0 -36 -9 -63.667 -27 -83s-44.333 -29 -79 -29s-61 9.66699 -79 29s-27 47 -27 83z" />
    <glyph glyph-name="guilsinglleft" unicode="&#x2039;" horiz-adv-x="196" 
d="M76 617h104l-59 -266l59 -282h-104l-60 282z" />
    <glyph glyph-name="guilsinglright" unicode="&#x203a;" horiz-adv-x="196" 
d="M16 617h104l60 -266l-60 -282h-104l59 282z" />
    <glyph glyph-name="fraction" unicode="&#x2044;" horiz-adv-x="67" 
d="M-137 0l276 700h65l-276 -700h-65z" />
    <glyph glyph-name="zerosuperior" unicode="&#x2070;" horiz-adv-x="280" 
d="M104 693v-240c0 -29.333 12 -44 36 -44s36 14.667 36 44v240c0 29.333 -12 44 -36 44s-36 -14.667 -36 -44zM34 458v230c0 36 9 63.667 27 83s44.333 29 79 29s61 -9.66699 79 -29s27 -47 27 -83v-230c0 -36 -9 -63.667 -27 -83s-44.333 -29 -79 -29s-61 9.66699 -79 29
s-27 47 -27 83z" />
    <glyph glyph-name="foursuperior" unicode="&#x2074;" horiz-adv-x="280" 
d="M24 431v64l127 300h76v-300h33v-64h-33v-80h-69v80h-134zM87 495h71v164z" />
    <glyph glyph-name="fivesuperior" unicode="&#x2075;" horiz-adv-x="280" 
d="M37 493h66v-41c0 -28.667 12 -43 36 -43s36 14.333 36 43v97c0 29.333 -12 44 -36 44s-36 -14.667 -36 -44v-13h-66l13 258h184v-64h-122l-5 -106c12.667 22 33 33 61 33c51.333 0 77 -34 77 -102v-99c0 -36 -8.83301 -63.667 -26.5 -83s-43.5 -29 -77.5 -29
s-59.833 9.66699 -77.5 29s-26.5 47 -26.5 83v37z" />
    <glyph glyph-name="sixsuperior" unicode="&#x2076;" horiz-adv-x="280" 
d="M36 458l-0.00195312 227c0 76.667 35.667 115 107 115c34 0 59.833 -9.66699 77.5 -29s26.5 -47 26.5 -83v-11h-66v16c0 29.333 -12 44 -36 44c-13.333 0 -23.166 -4 -29.499 -12s-9.5 -22.333 -9.5 -43v-81c12.667 26 34.334 39 65.001 39c51.333 0 77 -33.667 77 -101
v-81c0 -36 -9.16699 -63.667 -27.5 -83s-44.5 -29 -78.5 -29s-60.167 9.66699 -78.5 29s-27.5 47 -27.5 83zM141.998 577c-24 0 -36 -14.667 -36 -44v-80c0 -28.667 12 -43 36 -43s36 14.333 36 43v80c0 29.333 -12 44 -36 44z" />
    <glyph glyph-name="sevensuperior" unicode="&#x2077;" horiz-adv-x="280" 
d="M35 795h210v-61l-103 -383h-70l102 381h-139v63z" />
    <glyph glyph-name="eightsuperior" unicode="&#x2078;" horiz-adv-x="280" 
d="M249 458c0 -35.333 -9.5 -62.833 -28.5 -82.5s-45.833 -29.5 -80.5 -29.5s-61.5 9.83301 -80.5 29.5s-28.5 47.167 -28.5 82.5v34c0 46 14.333 77 43 93c-28.667 16 -43 45.667 -43 89v14c0 35.333 9.5 62.833 28.5 82.5s45.833 29.5 80.5 29.5s61.5 -9.83301 80.5 -29.5
s28.5 -47.167 28.5 -82.5v-14c0 -43.333 -14.333 -73 -43 -89c28.667 -16 43 -47 43 -93v-34zM101 459c0 -33.333 13 -50 39 -50s39 16.667 39 50v42c0 33.333 -13 50 -39 50s-39 -16.667 -39 -50v-42zM101 686v-25c0 -31.333 13 -47 39 -47s39 15.667 39 47v25
c0 34 -13 51 -39 51s-39 -17 -39 -51z" />
    <glyph glyph-name="ninesuperior" unicode="&#x2079;" horiz-adv-x="280" 
d="M244 688l0.00195312 -227c0 -76.667 -35.667 -115 -107 -115c-34 0 -59.833 9.66699 -77.5 29s-26.5 47 -26.5 83v11h66v-16c0 -29.333 12 -44 36 -44c13.333 0 23.166 4 29.499 12s9.5 22.333 9.5 43v81c-12.667 -26 -34.334 -39 -65.001 -39
c-51.333 0 -77 33.667 -77 101v81c0 36 9.16699 63.667 27.5 83s44.5 29 78.5 29s60.167 -9.66699 78.5 -29s27.5 -47 27.5 -83zM138.002 569c24 0 36 14.667 36 44v80c0 28.667 -12 43 -36 43s-36 -14.333 -36 -43v-80c0 -29.333 12 -44 36 -44z" />
    <glyph glyph-name="zeroinferior" unicode="&#x2080;" horiz-adv-x="280" 
d="M104 277v-240c0 -29.333 12 -44 36 -44s36 14.667 36 44v240c0 29.333 -12 44 -36 44s-36 -14.667 -36 -44zM34 42v230c0 36 9 63.667 27 83s44.333 29 79 29s61 -9.66699 79 -29s27 -47 27 -83v-230c0 -36 -9 -63.667 -27 -83s-44.333 -29 -79 -29s-61 9.66699 -79 29
s-27 47 -27 83z" />
    <glyph glyph-name="oneinferior" unicode="&#x2081;" horiz-adv-x="200" 
d="M25 274l0.000976562 49c24 0 41.167 4.66699 51.5 14s19.166 23.333 26.499 42h46v-444h-70v339h-54z" />
    <glyph glyph-name="twoinferior" unicode="&#x2082;" horiz-adv-x="280" 
d="M180 272c0 33.333 -11.999 50.002 -35.999 50.002s-36 -14.667 -36 -44v-47h-66v43c0 74 34.667 111 104 111s104 -37 104 -111c0 -32.667 -7.83301 -63.834 -23.5 -93.501s-32.667 -53.167 -51 -70.5s-34.333 -36 -48 -56s-18.834 -38.667 -15.501 -56h132v-63h-202v54
c0 24 4.66699 46.167 14 66.5s20.833 38 34.5 53l41 45c13.667 15 25.167 32.667 34.5 53s14 42.166 14 65.499z" />
    <glyph glyph-name="threeinferior" unicode="&#x2083;" horiz-adv-x="280" 
d="M174 44v33.999c0 20.667 -3.5 35.167 -10.5 43.5s-18.5 12.5 -34.5 12.5h-24v63h27c28 0 42 16 42 48v25c0 34 -12 51 -36 51s-36 -14.667 -36 -44v-28h-66v23c0 74.667 34.667 112 104 112s104 -37.333 104 -112v-11c0 -47.333 -16.333 -77.666 -49 -90.999
c32.667 -14 49 -45 49 -93v-35c0 -74.667 -34.667 -112 -104 -112s-104 37.333 -104 112v36h66v-41c0 -29.333 12 -44 36 -44s36 17 36 51z" />
    <glyph glyph-name="fourinferior" unicode="&#x2084;" horiz-adv-x="280" 
d="M24 15v64l127 300h76v-300h33v-64h-33v-80h-69v80h-134zM87 79h71v164z" />
    <glyph glyph-name="fiveinferior" unicode="&#x2085;" horiz-adv-x="280" 
d="M37 77h66v-41c0 -28.667 12 -43 36 -43s36 14.333 36 43v97c0 29.333 -12 44 -36 44s-36 -14.667 -36 -44v-13h-66l13 258h184v-64h-122l-5 -106c12.667 22 33 33 61 33c51.333 0 77 -34 77 -102v-99c0 -36 -8.83301 -63.667 -26.5 -83s-43.5 -29 -77.5 -29
s-59.833 9.66699 -77.5 29s-26.5 47 -26.5 83v37z" />
    <glyph glyph-name="sixinferior" unicode="&#x2086;" horiz-adv-x="280" 
d="M36 42l-0.00195312 227c0 76.667 35.667 115 107 115c34 0 59.833 -9.66699 77.5 -29s26.5 -47 26.5 -83v-11h-66v16c0 29.333 -12 44 -36 44c-13.333 0 -23.166 -4 -29.499 -12s-9.5 -22.333 -9.5 -43v-81c12.667 26 34.334 39 65.001 39c51.333 0 77 -33.667 77 -101
v-81c0 -36 -9.16699 -63.667 -27.5 -83s-44.5 -29 -78.5 -29s-60.167 9.66699 -78.5 29s-27.5 47 -27.5 83zM141.998 161c-24 0 -36 -14.667 -36 -44v-80c0 -28.667 12 -43 36 -43s36 14.333 36 43v80c0 29.333 -12 44 -36 44z" />
    <glyph glyph-name="seveninferior" unicode="&#x2087;" horiz-adv-x="280" 
d="M35 379h210v-61l-103 -383h-70l102 381h-139v63z" />
    <glyph glyph-name="eightinferior" unicode="&#x2088;" horiz-adv-x="280" 
d="M249 42c0 -35.333 -9.5 -62.833 -28.5 -82.5s-45.833 -29.5 -80.5 -29.5s-61.5 9.83301 -80.5 29.5s-28.5 47.167 -28.5 82.5v34c0 46 14.333 77 43 93c-28.667 16 -43 45.667 -43 89v14c0 35.333 9.5 62.833 28.5 82.5s45.833 29.5 80.5 29.5s61.5 -9.83301 80.5 -29.5
s28.5 -47.167 28.5 -82.5v-14c0 -43.333 -14.333 -73 -43 -89c28.667 -16 43 -47 43 -93v-34zM101 43c0 -33.333 13 -50 39 -50s39 16.667 39 50v42c0 33.333 -13 50 -39 50s-39 -16.667 -39 -50v-42zM101 270v-25c0 -31.333 13 -47 39 -47s39 15.667 39 47v25
c0 34 -13 51 -39 51s-39 -17 -39 -51z" />
    <glyph glyph-name="nineinferior" unicode="&#x2089;" horiz-adv-x="280" 
d="M244 272l0.00195312 -227c0 -76.667 -35.667 -115 -107 -115c-34 0 -59.833 9.66699 -77.5 29s-26.5 47 -26.5 83v11h66v-16c0 -29.333 12 -44 36 -44c13.333 0 23.166 4 29.499 12s9.5 22.333 9.5 43v81c-12.667 -26 -34.334 -39 -65.001 -39
c-51.333 0 -77 33.667 -77 101v81c0 36 9.16699 63.667 27.5 83s44.5 29 78.5 29s60.167 -9.66699 78.5 -29s27.5 -47 27.5 -83zM138.002 153c24 0 36 14.667 36 44v80c0 28.667 -12 43 -36 43s-36 -14.333 -36 -43v-80c0 -29.333 12 -44 36 -44z" />
    <glyph glyph-name="Euro" unicode="&#x20ac;" 
d="M19 380v55h28v97c0 56.667 13.5 100.167 40.5 130.5s67.167 45.5 120.5 45.5s93.5 -15.167 120.5 -45.5s40.5 -73.833 40.5 -130.5v-51h-104v58c0 46 -18 69 -54 69s-54 -23 -54 -69v-104h154v-55h-154v-55h154v-55h-154v-109c0 -45.333 18 -68 54 -68s54 22.667 54 68
v63h104v-56c0 -56.667 -13.5 -100.167 -40.5 -130.5s-67.167 -45.5 -120.5 -45.5s-93.5 15.167 -120.5 45.5s-40.5 73.833 -40.5 130.5v102h-28v55h28v55h-28z" />
    <glyph glyph-name="uni20B9" unicode="&#x20b9;" 
d="M26 549h176c0 24 -6.83301 41 -20.5 51s-34.834 15 -63.501 15h-92v85h344v-85h-84c12.667 -18.667 21 -40.667 25 -66h59v-85h-59c-4 -46.667 -21.333 -83.5 -52 -110.5s-67.667 -40.5 -111 -40.5h-5l233 -313h-118l-232 313v85h92c28.667 0 49.834 5 63.501 15
s20.5 27 20.5 51h-176v85z" />
    <glyph glyph-name="uni2117" unicode="&#x2117;" horiz-adv-x="736" 
d="M20 350c0 103.333 33.167 188.833 99.5 256.5s149.166 101.5 248.499 101.5s182.166 -33.833 248.499 -101.5s99.5 -153.167 99.5 -256.5s-33.167 -188.833 -99.5 -256.5s-149.166 -101.5 -248.499 -101.5s-182.166 33.833 -248.499 101.5s-99.5 153.167 -99.5 256.5z
M92 350c0 -83.333 26.167 -152.166 78.5 -206.499s118.166 -81.5 197.499 -81.5s145.166 27.167 197.499 81.5s78.5 123.166 78.5 206.499s-26.167 152.166 -78.5 206.499s-118.166 81.5 -197.499 81.5s-145.166 -27.167 -197.499 -81.5s-78.5 -123.166 -78.5 -206.499z
M275 127v428h116c75.333 0 113 -37.333 113 -112v-56c0 -74.667 -37.667 -112 -113 -112h-40v-148h-76zM428 396v38c0 34 -13.667 51 -41 51h-36v-140h36c27.333 0 41 17 41 51z" />
    <glyph glyph-name="trademark" unicode="&#x2122;" horiz-adv-x="586" 
d="M365 700l52 -250l47 250h97v-356h-66v253l-47 -253h-66l-53 251v-251h-61v356h97zM10 636v64h216v-64h-73v-292h-70v292h-73z" />
    <glyph glyph-name="onethird" unicode="&#x2153;" horiz-adv-x="627" 
d="M65 595l0.000976562 49c24 0 41.167 4.66699 51.5 14s19.166 23.333 26.499 42h46v-444h-70v339h-54zM521.001 109v33.999c0 20.667 -3.5 35.167 -10.5 43.5s-18.5 12.5 -34.5 12.5h-24v63h27c28 0 42 16 42 48v25c0 34 -12 51 -36 51s-36 -14.667 -36 -44v-28h-66v23
c0 74.667 34.667 112 104 112s104 -37.333 104 -112v-11c0 -47.333 -16.333 -77.666 -49 -90.999c32.667 -14 49 -45 49 -93v-35c0 -74.667 -34.667 -112 -104 -112s-104 37.333 -104 112v36h66v-41c0 -29.333 12 -44 36 -44s36 17 36 51zM130.001 -0.000976562l276 700h65
l-276 -700h-65z" />
    <glyph glyph-name="twothirds" unicode="&#x2154;" horiz-adv-x="627" 
d="M180 592c0 33.333 -11.999 50.002 -35.999 50.002s-36 -14.667 -36 -44v-47h-66v43c0 74 34.667 111 104 111s104 -37 104 -111c0 -32.667 -7.83301 -63.834 -23.5 -93.501s-32.667 -53.167 -51 -70.5s-34.333 -36 -48 -56s-18.834 -38.667 -15.501 -56h132v-63h-202v54
c0 24 4.66699 46.167 14 66.5s20.833 38 34.5 53l41 45c13.667 15 25.167 32.667 34.5 53s14 42.166 14 65.499zM153.001 0.00195312l276 700h65l-276 -700h-65zM521.001 109.002v33.999c0 20.667 -3.5 35.167 -10.5 43.5s-18.5 12.5 -34.5 12.5h-24v63h27c28 0 42 16 42 48
v25c0 34 -12 51 -36 51s-36 -14.667 -36 -44v-28h-66v23c0 74.667 34.667 112 104 112s104 -37.333 104 -112v-11c0 -47.333 -16.333 -77.666 -49 -90.999c32.667 -14 49 -45 49 -93v-35c0 -74.667 -34.667 -112 -104 -112s-104 37.333 -104 112v36h66v-41
c0 -29.333 12 -44 36 -44s36 17 36 51z" />
    <glyph glyph-name="oneeighth" unicode="&#x215b;" horiz-adv-x="627" 
d="M65 595l0.000976562 49c24 0 41.167 4.66699 51.5 14s19.166 23.333 26.499 42h46v-444h-70v339h-54zM596.001 107c0 -35.333 -9.5 -62.833 -28.5 -82.5s-45.833 -29.5 -80.5 -29.5s-61.5 9.83301 -80.5 29.5s-28.5 47.167 -28.5 82.5v34c0 46 14.333 77 43 93
c-28.667 16 -43 45.667 -43 89v14c0 35.333 9.5 62.833 28.5 82.5s45.833 29.5 80.5 29.5s61.5 -9.83301 80.5 -29.5s28.5 -47.167 28.5 -82.5v-14c0 -43.333 -14.333 -73 -43 -89c28.667 -16 43 -47 43 -93v-34zM448.001 108c0 -33.333 13 -50 39 -50s39 16.667 39 50v42
c0 33.333 -13 50 -39 50s-39 -16.667 -39 -50v-42zM448.001 335v-25c0 -31.333 13 -47 39 -47s39 15.667 39 47v25c0 34 -13 51 -39 51s-39 -17 -39 -51zM130.001 0l276 700h65l-276 -700h-65z" />
    <glyph glyph-name="threeeighths" unicode="&#x215c;" horiz-adv-x="627" 
d="M174 365v33.999c0 20.667 -3.5 35.167 -10.5 43.5s-18.5 12.5 -34.5 12.5h-24v63h27c28 0 42 16 42 48v25c0 34 -12 51 -36 51s-36 -14.667 -36 -44v-28h-66v23c0 74.667 34.667 112 104 112s104 -37.333 104 -112v-11c0 -47.333 -16.333 -77.666 -49 -90.999
c32.667 -14 49 -45 49 -93v-35c0 -74.667 -34.667 -112 -104 -112s-104 37.333 -104 112v36h66v-41c0 -29.333 12 -44 36 -44s36 17 36 51zM143 -0.000976562l276 700h65l-276 -700h-65zM596 106.999c0 -35.333 -9.5 -62.833 -28.5 -82.5s-45.833 -29.5 -80.5 -29.5
s-61.5 9.83301 -80.5 29.5s-28.5 47.167 -28.5 82.5v34c0 46 14.333 77 43 93c-28.667 16 -43 45.667 -43 89v14c0 35.333 9.5 62.833 28.5 82.5s45.833 29.5 80.5 29.5s61.5 -9.83301 80.5 -29.5s28.5 -47.167 28.5 -82.5v-14c0 -43.333 -14.333 -73 -43 -89
c28.667 -16 43 -47 43 -93v-34zM448 107.999c0 -33.333 13 -50 39 -50s39 16.667 39 50v42c0 33.333 -13 50 -39 50s-39 -16.667 -39 -50v-42zM448 334.999v-25c0 -31.333 13 -47 39 -47s39 15.667 39 47v25c0 34 -13 51 -39 51s-39 -17 -39 -51z" />
    <glyph glyph-name="fiveeighths" unicode="&#x215d;" horiz-adv-x="627" 
d="M37 398h66v-41c0 -28.667 12 -43 36 -43s36 14.333 36 43v97c0 29.333 -12 44 -36 44s-36 -14.667 -36 -44v-13h-66l13 258h184v-64h-122l-5 -106c12.667 22 33 33 61 33c51.333 0 77 -34 77 -102v-99c0 -36 -8.83301 -63.667 -26.5 -83s-43.5 -29 -77.5 -29
s-59.833 9.66699 -77.5 29s-26.5 47 -26.5 83v37zM143 0l276 700h65l-276 -700h-65zM596 107c0 -35.333 -9.5 -62.833 -28.5 -82.5s-45.833 -29.5 -80.5 -29.5s-61.5 9.83301 -80.5 29.5s-28.5 47.167 -28.5 82.5v34c0 46 14.333 77 43 93c-28.667 16 -43 45.667 -43 89v14
c0 35.333 9.5 62.833 28.5 82.5s45.833 29.5 80.5 29.5s61.5 -9.83301 80.5 -29.5s28.5 -47.167 28.5 -82.5v-14c0 -43.333 -14.333 -73 -43 -89c28.667 -16 43 -47 43 -93v-34zM448 108c0 -33.333 13 -50 39 -50s39 16.667 39 50v42c0 33.333 -13 50 -39 50
s-39 -16.667 -39 -50v-42zM448 335v-25c0 -31.333 13 -47 39 -47s39 15.667 39 47v25c0 34 -13 51 -39 51s-39 -17 -39 -51z" />
    <glyph glyph-name="seveneighths" unicode="&#x215e;" horiz-adv-x="627" 
d="M35 700h210v-61l-103 -383h-70l102 381h-139v63zM113 0l276 700h65l-276 -700h-65zM596 107c0 -35.333 -9.5 -62.833 -28.5 -82.5s-45.833 -29.5 -80.5 -29.5s-61.5 9.83301 -80.5 29.5s-28.5 47.167 -28.5 82.5v34c0 46 14.333 77 43 93c-28.667 16 -43 45.667 -43 89
v14c0 35.333 9.5 62.833 28.5 82.5s45.833 29.5 80.5 29.5s61.5 -9.83301 80.5 -29.5s28.5 -47.167 28.5 -82.5v-14c0 -43.333 -14.333 -73 -43 -89c28.667 -16 43 -47 43 -93v-34zM448 108c0 -33.333 13 -50 39 -50s39 16.667 39 50v42c0 33.333 -13 50 -39 50
s-39 -16.667 -39 -50v-42zM448 335v-25c0 -31.333 13 -47 39 -47s39 15.667 39 47v25c0 34 -13 51 -39 51s-39 -17 -39 -51z" />
    <glyph glyph-name="minus" unicode="&#x2212;" 
d="M25 389h346v-78h-346v78z" />
    <glyph glyph-name="infinity" unicode="&#x221e;" horiz-adv-x="600" 
d="M180 216c-45.333 0 -80.333 11.5 -105 34.5s-37 56.167 -37 99.5s12.333 76.5 37 99.5s59.667 34.5 105 34.5h10c58.667 0 97.334 -17 116.001 -51c18 34 55.333 51 112 51h12c44.667 0 79.167 -11.5 103.5 -34.5s36.5 -56.167 36.5 -99.5s-12.167 -76.5 -36.5 -99.5
s-58.833 -34.5 -103.5 -34.5h-12c-56 0 -93.333 17 -112 51c-18.667 -34 -57.334 -51 -116.001 -51h-10zM181 409c-44 0 -66 -19.667 -66 -59c0 -38 22 -57.333 66 -58h20c45.333 0 68 19.333 68 58c0 39.333 -22.667 59 -68 59h-20zM406 409c-44 0 -66 -19.667 -66 -59
c0 -38 22 -57.333 66 -58h20c45.333 0 68 19.333 68 58c0 39.333 -22.667 59 -68 59h-20z" />
    <glyph glyph-name="approxequal" unicode="&#x2248;" 
d="M60 199l-52.001 50c22.667 34 43.167 57.5 61.5 70.5s37.5 19.5 57.5 19.5c18.667 0 43.834 -10.167 75.501 -30.5s54.167 -30.5 67.5 -30.5c10.667 0 20.167 3.83301 28.5 11.5s20.833 22.834 37.5 45.501l52 -54c-22.667 -33.333 -43 -56 -61 -68s-37.333 -18 -58 -18
c-18.667 0 -43.834 10.167 -75.501 30.5s-54.167 30.5 -67.5 30.5c-11.333 0 -21.166 -3.83301 -29.499 -11.5s-20.5 -22.834 -36.5 -45.501zM59.999 365l-52.001 50c22.667 34 43.167 57.5 61.5 70.5s37.5 19.5 57.5 19.5c18.667 0 43.834 -10.167 75.501 -30.5
s54.167 -30.5 67.5 -30.5c10.667 0 20.167 3.83301 28.5 11.5s20.833 22.834 37.5 45.501l52 -54c-22.667 -33.333 -43 -56 -61 -68s-37.333 -18 -58 -18c-18.667 0 -43.834 10.167 -75.501 30.5s-54.167 30.5 -67.5 30.5c-11.333 0 -21.166 -3.83301 -29.499 -11.5
s-20.5 -22.834 -36.5 -45.501z" />
    <glyph glyph-name=".null" horiz-adv-x="0" 
 />
    <glyph glyph-name="nonmarkingreturn" horiz-adv-x="333" 
 />
    <glyph glyph-name="NULL" horiz-adv-x="0" 
 />
    <glyph glyph-name="CR" horiz-adv-x="155" 
 />
    <glyph glyph-name="commaaccent" horiz-adv-x="250" 
d="M115 -125h-36v92h92v-82l-43 -64h-39z" />
    <glyph glyph-name="zero.alt" 
d="M141 539v-378c0 -46 19 -69 57 -69s57 23 57 69v378c0 46 -19 69 -57 69s-57 -23 -57 -69zM31 168v364c0 56 14.333 99.333 43 130s70 46 124 46s95.333 -15.333 124 -46s43 -74 43 -130v-364c0 -56 -14.333 -99.333 -43 -130s-70 -46 -124 -46s-95.333 15.333 -124 46
s-43 74 -43 130z" />
    <glyph glyph-name="one.alt" horiz-adv-x="250" 
d="M15 534v78c38 0 65 7.33301 81 22s29.333 36.667 40 66h74v-700h-110v534h-85z" />
    <glyph glyph-name="two.alt" horiz-adv-x="369" 
d="M244 528c0 30 -4.83203 50.8359 -14.499 62.5029s-23.834 17.5 -42.501 17.5c-38 0 -57 -23 -57 -69v-75h-104v68c0 56.667 14 100.167 42 130.5s68.667 45.5 122 45.5s94 -15.167 122 -45.5s42 -73.833 42 -130.5c0 -42.667 -8.16699 -82.834 -24.5 -120.501
s-35.833 -69.834 -58.5 -96.501s-45 -51.667 -67 -75s-39.833 -46.833 -53.5 -70.5s-18.5 -46.834 -14.5 -69.501h208v-100h-318v86c0 38 7.5 72.833 22.5 104.5s33.167 59.334 54.5 83.001l64 70c21.333 23 39.5 50.167 54.5 81.5s22.5 65.666 22.5 102.999z" />
    <glyph glyph-name="three.alt" horiz-adv-x="382" 
d="M245 489l-0.000976562 39c0 30 -4.83301 50.833 -14.5 62.5s-23.834 17.5 -42.501 17.5c-38 0 -57 -23 -57 -69v-45h-104v38c0 56.667 14 100.167 42 130.5s68.667 45.5 122 45.5s94 -15.167 122 -45.5s42 -73.833 42 -130.5v-18c0 -74.667 -25.667 -122.667 -77 -144
c51.333 -22.667 77 -71.667 77 -147v-55c0 -56.667 -14 -100.167 -42 -130.5s-68.667 -45.5 -122 -45.5s-94 15.167 -122 45.5s-42 73.833 -42 130.5v58h104v-65c0 -46 19 -69 57 -69c18.667 0 32.834 5.83301 42.501 17.5s14.5 32.167 14.5 61.5v55
c0 32 -5.66699 54.833 -17 68.5s-29.666 20.5 -54.999 20.5h-37v100h43c22 0 38.5 5.66699 49.5 17s16.5 30.333 16.5 57z" />
    <glyph glyph-name="four.alt" horiz-adv-x="397" 
d="M14 127v100l200 473h120v-473h52v-100h-52v-127h-110v127h-210zM115 227h109v259z" />
    <glyph glyph-name="five.alt" horiz-adv-x="383" 
d="M28 226h104v-65c0 -45.333 19 -68 57 -68s57 22.667 57 68v154c0 46 -19 69 -57 69s-57 -23 -57 -69v-21h-104l20 406h290v-100h-191l-9 -167c20.667 34 52.667 51 96 51c81.333 0 122 -53.333 122 -160v-156c0 -56.667 -14 -100.167 -42 -130.5
s-68.667 -45.5 -122 -45.5s-94 15.167 -122 45.5s-42 73.833 -42 130.5v58z" />
    <glyph glyph-name="six.alt" horiz-adv-x="392" 
d="M31 168v358c0 121.333 56 182 168 182c53.333 0 94 -15.167 122 -45.5s42 -73.833 42 -130.5v-18h-104v25c0 46 -19 69 -57 69c-20.667 0 -36 -6.33301 -46 -19s-15 -35 -15 -67v-128c19.333 41.333 53.333 62 102 62c81.333 0 122 -53.333 122 -160v-128
c0 -56 -14.333 -99.333 -43 -130s-70 -46 -124 -46s-95.333 15.333 -124 46s-43 74 -43 130zM198 356c-38 0 -57 -23 -57 -69v-126c0 -45.333 19 -68 57 -68s57 22.667 57 68v126c0 46 -19 69 -57 69z" />
    <glyph glyph-name="seven.alt" horiz-adv-x="340" 
d="M10 700h320v-96l-152 -604h-110l152 604v-4h-210v100z" />
    <glyph glyph-name="eight.alt" horiz-adv-x="398" 
d="M371 168c0 -56 -14.833 -99.333 -44.5 -130s-72.167 -46 -127.5 -46s-97.833 15.333 -127.5 46s-44.5 74 -44.5 130v55c0 72 22.667 120.667 68 146c-45.333 24.667 -68 71.667 -68 141v22c0 56 14.833 99.333 44.5 130s72.167 46 127.5 46s97.833 -15.333 127.5 -46
s44.5 -74 44.5 -130v-22c0 -68.667 -22.667 -115.667 -68 -141c45.333 -25.333 68 -74 68 -146v-55zM137 171c0 -52.667 20.666 -79 61.999 -79c40.667 0 61.334 26.333 62.001 79v65c0 52.667 -20.667 79 -62 79s-62 -26.333 -62 -79v-65zM136.999 528v-39
c0 -49.333 20.667 -74 62 -74s62 24.667 62 74v39c0 53.333 -20.667 80 -62 80s-62 -26.667 -62 -80z" />
    <glyph glyph-name="nine.alt" horiz-adv-x="392" 
d="M361 532v-358c0 -121.333 -56 -182 -168 -182c-53.333 0 -94 15.167 -122 45.5s-42 73.833 -42 130.5v18h104v-25c0 -46 19 -69 57 -69c20.667 0 36 6.33301 46 19s15 35 15 67v128c-19.333 -41.333 -53.333 -62 -102 -62c-81.333 0 -122 53.333 -122 160v128
c0 56 14.333 99.333 43 130s70 46 124 46s95.333 -15.333 124 -46s43 -74 43 -130zM194 344c38 0 57 23 57 69v126c0 45.333 -19 68 -57 68s-57 -22.667 -57 -68v-126c0 -46 19 -69 57 -69z" />
    </font>
</defs>
</svg>
