<?xml version="1.0" standalone="no"?>
<!DOCTYPE svg PUBLIC "-//W3C//DTD SVG 1.1//EN" "http://www.w3.org/Graphics/SVG/1.1/DTD/svg11.dtd" >
<svg>
<metadata>
Created by FontForge 20090914 at Sat Feb 16 10:56:28 2019
 By www-data
Copyright (c) 2010 by Ryoichi Tsunekawa. All rights reserved.
</metadata>
<defs>
<font id="BebasNeueBold" horiz-adv-x="811" >
  <font-face 
    font-family="Bebas Neue Bold"
    font-weight="700"
    font-stretch="normal"
    units-per-em="2048"
    panose-1="2 11 6 6 2 2 2 5 2 1"
    ascent="1536"
    descent="-512"
    x-height="1434"
    cap-height="1434"
    bbox="-27 -301 2048 1831"
    underline-thickness="102"
    underline-position="-633"
    unicode-range="U+000D-U+25FC"
  />
<missing-glyph horiz-adv-x="748" 
d="M68 0v1365h544v-1365h-544zM136 68h408v1229h-408v-1229z" />
    <glyph glyph-name=".notdef" horiz-adv-x="748" 
d="M68 0v1365h544v-1365h-544zM136 68h408v1229h-408v-1229z" />
    <glyph glyph-name="glyph3" horiz-adv-x="0" 
 />
    <glyph glyph-name="glyph3" horiz-adv-x="0" 
 />
    <glyph glyph-name="uni000D" unicode="&#xd;" horiz-adv-x="317" 
 />
    <glyph glyph-name="space" unicode=" " horiz-adv-x="317" 
 />
    <glyph glyph-name="exclam" unicode="!" horiz-adv-x="389" 
d="M82 836v598h225v-598l-28 -519h-168zM86 0v217h217v-217h-217z" />
    <glyph glyph-name="quotedbl" unicode="&#x22;" horiz-adv-x="665" 
d="M82 1434h217l-33 -422h-153zM367 1434h217l-33 -422h-154z" />
    <glyph glyph-name="numbersign" unicode="#" horiz-adv-x="839" 
d="M31 410l16 159h100l39 375h-102l16 160h103l35 330h184l-35 -330h133l35 330h184l-34 -330h104l-16 -160h-105l-39 -375h105l-17 -159h-104l-43 -410h-184l43 410h-134l-43 -410h-184l43 410h-100zM332 569h133l39 375h-133z" />
    <glyph glyph-name="dollar" unicode="$" 
d="M70 365l-0.00292969 97.998h213v-113c0 -52 10.5 -88.167 31.5 -108.5s49.167 -30.5 84.5 -30.5s63.666 10.167 84.999 30.5s32 56.5 32 108.5c0 49.333 -10.833 91.666 -32.5 126.999s-49 68.5 -82 99.5s-68.167 61.167 -105.5 90.5s-72.5 62.333 -105.5 99
s-60.333 79.334 -82 128.001s-32.5 107 -32.5 175c0 96.667 19.833 174.834 59.5 234.501s98.834 98.167 177.501 115.5v107h185v-107c80.667 -16.667 141 -54.5 181 -113.5s60 -137.833 60 -236.5v-45h-213v59c0 52 -9.83301 88.667 -29.5 110s-47.167 32 -82.5 32
s-63 -10.667 -83 -32s-30 -58 -30 -110c0 -49.333 11 -91.666 33 -126.999s49.333 -68.333 82 -99s67.834 -60.667 105.501 -90s72.834 -62.5 105.501 -99.5s59.834 -79.667 81.501 -128s32.5 -106.5 32.5 -174.5c0 -98 -20.5 -177.167 -61.5 -237.5
s-101.5 -98.833 -181.5 -115.5v-104h-185v104c-82 16.667 -143 55 -183 115s-60 139.333 -60 238z" />
    <glyph glyph-name="percent" unicode="%" horiz-adv-x="1284" 
d="M70 743v471c0 74 18.333 130.833 55 170.5s90.667 59.5 162 59.5c70.667 0 124.5 -19.833 161.5 -59.5s55.5 -96.5 55.5 -170.5v-471c0 -74 -18.5 -130.667 -55.5 -170s-90.833 -59 -161.5 -59s-124.5 19.833 -161.5 59.5s-55.5 96.167 -55.5 169.5zM213 733
c0 -60 24.667 -89.998 74 -89.998c23.333 0 41.333 7.16699 54 21.5s19 37.166 19 68.499v492c0 31.333 -6.33301 54.166 -19 68.499s-30.667 21.5 -54 21.5c-49.333 0 -74 -30 -74 -90v-492zM287 0.00195312l565 1434h133l-565 -1434h-133zM780 219.002v471
c0 74 18.5 130.833 55.5 170.5s90.833 59.5 161.5 59.5s124.5 -19.833 161.5 -59.5s55.5 -96.5 55.5 -170.5v-471c0 -74 -18.333 -130.667 -55 -170s-90.667 -59 -162 -59c-70.667 0 -124.5 19.833 -161.5 59.5s-55.5 96.167 -55.5 169.5zM924 209.002
c0 -60 24.332 -89.999 72.999 -89.999c23.333 0 41.5 7.16699 54.5 21.5s19.5 37.166 19.5 68.499v491c0 31.333 -6.5 54.333 -19.5 69s-31.167 22 -54.5 22c-49.333 0 -73.666 -30.333 -72.999 -91v-491z" />
    <glyph glyph-name="ampersand" unicode="&#x26;" horiz-adv-x="847" 
d="M84 311l0.00195312 146.002c0 74 12 136.5 36 187.5s64 88.833 120 113.5c-104 44 -156 142.333 -156 295v26c0 116 27.667 204.167 83 264.5s139.666 90.5 252.999 90.5h258v-205h-254c-35.333 0 -63.333 -10.333 -84 -31s-31 -56.667 -31 -108v-89
c0 -57.333 12 -96.833 36 -118.5s57 -32.5 99 -32.5h99v160h225v-160h59v-205h-59v-471c0 -35.333 1.33301 -66.333 4 -93s9.66699 -53.667 21 -81h-230c-5.33301 15.333 -9.33301 30.166 -12 44.499s-5.33398 37.166 -8.00098 68.499c-39.333 -86 -109 -129 -209 -129
c-83.333 0 -145.833 28 -187.5 84s-62.5 137 -62.5 243zM309.002 330.002c0 -52 10.667 -88.667 32 -110s49.666 -32 84.999 -32c34 0 61.333 9.66699 82 29s32.334 51.333 35.001 96v332h-86c-52 0 -89.667 -13.667 -113 -41s-35 -74.333 -35 -141v-133z" />
    <glyph glyph-name="quotesingle" unicode="'" horiz-adv-x="368" 
d="M76 1434h217l-33 -422h-154z" />
    <glyph glyph-name="parenleft" unicode="(" horiz-adv-x="514" 
d="M96 313v807.002c0 57.333 5.83301 105.833 17.5 145.5s30.167 72.167 55.5 97.5s58.166 43.5 98.499 54.5s88.5 16.5 144.5 16.5h69v-185h-55c-35.333 0 -61.5 -8.5 -78.5 -25.5s-25.5 -51.5 -25.5 -103.5v-807c0 -52 8.5 -86.5 25.5 -103.5s43.167 -25.5 78.5 -25.5h55
v-184h-69c-56 0 -104.167 5.5 -144.5 16.5s-73.166 29.167 -98.499 54.5s-43.833 57.666 -55.5 96.999s-17.5 87.666 -17.5 144.999z" />
    <glyph glyph-name="parenright" unicode=")" horiz-adv-x="514" 
d="M33 0v184.001h55c35.333 0 61.666 8.66699 78.999 26s26 51.666 26 102.999v807c0 52 -8.66699 86.5 -26 103.5s-43.666 25.5 -78.999 25.5h-55v185h69c112 0 192.667 -23.667 242 -71s74 -128.333 74 -243v-807c0 -114.667 -24.667 -195.5 -74 -242.5
s-130 -70.5 -242 -70.5h-69z" />
    <glyph glyph-name="asterisk" unicode="*" 
d="M4 1075l57 174l306 -153l-54 338h185l-54 -338l306 153l57 -174l-336 -57l240 -240l-148 -108l-157 303l-158 -303l-148 108l240 240z" />
    <glyph glyph-name="plus" unicode="+" 
d="M51 637v160h275v276h159v-276h275v-160h-275v-281h-159v281h-275z" />
    <glyph glyph-name="comma" unicode="," horiz-adv-x="380" 
d="M82 0v217h217v-194l-98 -228h-92l59 205h-86z" />
    <glyph glyph-name="hyphen" unicode="-" horiz-adv-x="552" 
d="M72 614v205h409v-205h-409z" />
    <glyph glyph-name="period" unicode="." horiz-adv-x="380" 
d="M82 0v217h217v-217h-217z" />
    <glyph glyph-name="slash" unicode="/" horiz-adv-x="780" 
d="M10 0l565 1434h195l-565 -1434h-195z" />
    <glyph glyph-name="zero" unicode="0" 
d="M63 344l-0.000976562 746c0 116 29.5 205 88.5 267s143.833 93 254.5 93s195.334 -31 254.001 -93s88 -151 88 -267v-746c0 -116 -29.5 -205 -88.5 -267s-143.5 -93 -253.5 -93c-110.667 0 -195.5 31 -254.5 93s-88.5 151 -88.5 267zM288.999 330
c0 -52 10.499 -88.667 31.499 -110s49.5 -32 85.5 -32c35.333 0 63.5 10.667 84.5 32s31.5 58 31.5 110v774c0 52 -10.5 88.5 -31.5 109.5s-49.167 31.5 -84.5 31.5s-63.666 -10.5 -84.999 -31.5s-32 -57.5 -32 -109.5v-774z" />
    <glyph glyph-name="one" unicode="1" 
d="M221 1094v159c44 0 80 4.83301 108 14.5s50.833 22.667 68.5 39s32 35.5 43 57.5s20.5 45.333 28.5 70h152v-1434h-226v1094h-174z" />
    <glyph glyph-name="two" unicode="2" 
d="M82 0l-0.00488281 176.001c0 69.333 10.833 130.666 32.5 183.999s49.334 102.166 83.001 146.499s69.5 86 107.5 125s73.833 80.333 107.5 124s61.334 91.5 83.001 143.5s32.5 112.667 32.5 182c0 64 -10.5 107.333 -31.5 130s-49.167 34 -84.5 34
s-63.666 -10.5 -84.999 -31.5s-32 -57.5 -32 -109.5v-154h-213v140c0 116 28.333 205 85 267s140.334 93 251.001 93s194.334 -31 251.001 -93s85 -151 85 -267c0 -75.333 -11 -143.333 -33 -204s-49.667 -116 -83 -166s-69.5 -96.167 -108.5 -138.5l-108.5 -121
c-33.333 -38.333 -61 -75.5 -83 -111.5s-33 -73.667 -33 -113c0 -13.333 0.666992 -23.666 2 -30.999h426v-205h-651z" />
    <glyph glyph-name="three" unicode="3" 
d="M70 344v118.999h213v-133c0 -52 10.5 -88.667 31.5 -110s49.167 -32 84.5 -32s63.666 11 84.999 33s32 65 32 129v113c0 66.667 -11.667 113.667 -35 141s-60.666 41 -111.999 41h-76v205h88c42 0 75 10.833 99 32.5s36 61.167 36 118.5v80c0 64 -10.5 107.333 -31.5 130
s-49.5 34 -85.5 34c-35.333 0 -63.5 -10.5 -84.5 -31.5s-31.5 -57.5 -31.5 -109.5v-92h-213v78c0 116 28.333 205 85 267s140.334 93 251.001 93s194.167 -31 250.5 -93s84.5 -151 84.5 -267v-37c0 -152.667 -52.333 -251 -157 -295
c57.333 -24.667 97.833 -62.667 121.5 -114s35.5 -113.666 35.5 -186.999v-113c0 -116 -28.333 -205 -85 -267s-140 -93 -250 -93c-110.667 0 -194.334 31 -251.001 93s-85 151 -85 267z" />
    <glyph glyph-name="four" unicode="4" 
d="M29 260v205l409 969h246v-969h107v-205h-107v-260h-221v260h-434zM236 465h227v539z" />
    <glyph glyph-name="five" unicode="5" 
d="M72 344l0.00292969 119h213v-133c0 -52 10.5 -88.333 31.5 -109s49.167 -31 84.5 -31s63.666 10.333 84.999 31s32 57 32 109v315c0 52 -10.5 88.5 -31.5 109.5s-49.5 31.5 -85.5 31.5c-35.333 0 -63.5 -10.5 -84.5 -31.5s-31.5 -57.5 -31.5 -109.5v-43h-213l41 832h594
v-205h-392l-18 -342c42 69.333 107.667 104 197 104c83.333 0 145.666 -28 186.999 -84s62 -137 62 -243v-320c0 -116 -28.333 -205 -85 -267s-140 -93 -250 -93c-110.667 0 -194.334 31 -251.001 93s-85 151 -85 267z" />
    <glyph glyph-name="six" unicode="6" 
d="M68 344l-0.000976562 733c0 121.333 28 213.833 84 277.5s142.667 95.5 260 95.5c110.667 0 194.334 -31 251.001 -93s85 -151 85 -267v-37h-213v51c0 52 -10.667 88.5 -32 109.5s-49.666 31.5 -84.999 31.5c-39.333 0 -70 -12.333 -92 -37s-33 -71 -33 -139v-262
c39.333 84.667 109 127 209 127c83.333 0 145.833 -28 187.5 -84s62.5 -137.333 62.5 -244v-262c0 -116 -29.5 -205 -88.5 -267s-143.5 -93 -253.5 -93c-110.667 0 -195.334 31 -254.001 93s-88 151 -88 267zM292.999 330c0 -52 10.499 -88.333 31.499 -109
s49.5 -31 85.5 -31c35.333 0 63.5 10.333 84.5 31s31.5 57 31.5 109v258c0 52 -10.5 88.5 -31.5 109.5s-49.167 31.5 -84.5 31.5s-63.666 -10.5 -84.999 -31.5s-32 -57.5 -32 -109.5v-258z" />
    <glyph glyph-name="seven" unicode="7" 
d="M68 1229v205h675v-197l-331 -1237h-226l330 1229h-448z" />
    <glyph glyph-name="eight" unicode="8" 
d="M53 344l0.000976562 113c0 69.333 11 129.666 33 180.999s57.667 90.666 107 117.999c-92.667 50.667 -139.334 146.667 -140.001 288v46c0 116 30 205 90 267s147.667 93 263 93c114.667 0 202 -31 262 -93s90 -151 90 -267v-46c0 -140.667 -46.667 -236.667 -140 -288
c49.333 -27.333 85 -66.666 107 -117.999s33 -111.666 33 -180.999v-113c0 -116 -30 -205 -90 -267s-147.333 -93 -262 -93s-202.167 31 -262.5 93s-90.5 151 -90.5 267zM279.001 350c0 -64 12.166 -107 36.499 -129s54.5 -33 90.5 -33c35.333 0 64.833 11 88.5 33
s36.167 65 37.5 129v133c0 57.333 -11.167 98.666 -33.5 123.999s-53.166 38 -92.499 38s-70.333 -12.667 -93 -38s-34 -66.666 -34 -123.999v-133zM279 1001c0 -57.333 11.833 -96.833 35.5 -118.5s54.167 -32.5 91.5 -32.5c35.333 0 65.166 10.833 89.499 32.5
s36.5 61.167 36.5 118.5v80c0 64 -12.167 107.333 -36.5 130s-54.166 34 -89.499 34s-65.333 -11.167 -90 -33.5s-37 -65.833 -37 -130.5v-80z" />
    <glyph glyph-name="nine" unicode="9" 
d="M59 827l0.000976562 262.998c0 116 29.5 205 88.5 267s143.5 93 253.5 93c110.667 0 195.334 -31 254.001 -93s88 -151 88 -267v-734c0 -121.333 -28 -213.666 -84 -276.999s-142.667 -95 -260 -95c-110.667 0 -194.334 31 -251.001 93s-85 151 -85 267v37h213v-51
c0 -52 10.667 -88.667 32 -110s49.666 -32 84.999 -32c39.333 0 70 12.333 92 37s33 71.334 33 140.001v262c-39.333 -84.667 -109 -127 -209 -127c-83.333 0 -145.833 28 -187.5 84s-62.5 137 -62.5 243zM285.001 845.998c0 -52 10.501 -88.5 31.501 -109.5
s49.167 -31.5 84.5 -31.5s63.666 10.5 84.999 31.5s32 57.5 32 109.5v258c0 52 -10.5 88.167 -31.5 108.5s-49.5 30.5 -85.5 30.5c-35.333 0 -63.5 -10.167 -84.5 -30.5s-31.5 -56.5 -31.5 -108.5v-258z" />
    <glyph glyph-name="colon" unicode=":" horiz-adv-x="380" 
d="M82 0v217h217v-217h-217zM82 780v217h217v-217h-217z" />
    <glyph glyph-name="semicolon" unicode=";" horiz-adv-x="380" 
d="M82 0v217h217v-194l-98 -228h-92l59 205h-86zM82 780v217h217v-217h-217z" />
    <glyph glyph-name="less" unicode="&#x3c;" 
d="M61 637v160l668 245v-161l-459 -164l459 -164v-162z" />
    <glyph glyph-name="equal" unicode="=" 
d="M72 471v160h667v-160h-667zM72 803v160h667v-160h-667z" />
    <glyph glyph-name="greater" unicode="&#x3e;" 
d="M82 391v162l459 164l-459 164v161l668 -245v-160z" />
    <glyph glyph-name="question" unicode="?" horiz-adv-x="737" 
d="M41 948l-0.000976562 142c0 116 27.667 205 83 267s138.333 93 249 93s193.667 -31 249 -93s83 -151 83 -267c0 -62.667 -6.5 -117 -19.5 -163s-29.5 -87.333 -49.5 -124s-41.5 -70.5 -64.5 -101.5s-44.5 -61.5 -64.5 -91.5s-36.5 -62 -49.5 -96s-19.5 -73 -19.5 -117
c0 -30 2.66699 -56.667 8 -80h-200c-8 24.667 -12.333 54.334 -13 89.001c0 52 6.16699 97 18.5 135s27.5 73 45.5 105s37.833 62.667 59.5 92s41.334 61.166 59.001 95.499s32.667 73 45 116s18.5 94.5 18.5 154.5c0 52 -9.83301 88.5 -29.5 109.5s-47.167 31.5 -82.5 31.5
s-63 -10.5 -83 -31.5s-30 -57.5 -30 -109.5v-156h-213zM235.999 0v217h217v-217h-217z" />
    <glyph glyph-name="at" unicode="@" horiz-adv-x="1411" 
d="M49 594c0 126.667 15.6621 245.672 46.9951 357.005s78.5 209 141.5 293s141.5 150.333 235.5 199s204.667 73 332 73c108 0 198.5 -15.833 271.5 -47.5s131.333 -74.834 175 -129.501s75 -118.5 94 -191.5s28.5 -151.167 28.5 -234.5c0 -125.333 -13.333 -230 -40 -314
s-60 -151.167 -100 -201.5s-83.333 -85.833 -130 -106.5s-89.667 -31 -129 -31c-52 0 -94 10.667 -126 32s-50 55.666 -54 102.999c-42 -86 -108.333 -127 -199 -123c-72.667 2.66699 -124.334 31 -155.001 85s-40.334 131 -29.001 231l22 207
c10.667 101.333 36.834 177.833 78.501 229.5s98.834 76.167 171.501 73.5c84.667 -1.33301 140.667 -43.666 168 -126.999l12 119h197l-62 -592c-4 -34 9.66699 -51.333 41 -52c28.667 0 53.334 14.333 74.001 43s37.834 65.667 51.501 111s23.5 95.166 29.5 149.499
s9 107.5 9 159.5c0 64 -7.83301 122.667 -23.5 176s-40.167 98.833 -73.5 136.5s-75.666 67 -126.999 88s-112.333 31.5 -183 31.5c-91.333 0 -171.5 -17.667 -240.5 -53s-126.833 -85.833 -173.5 -151.5s-81.834 -145.167 -105.501 -238.5s-35.5 -198 -35.5 -314
c0 -165.333 38.833 -295.833 116.5 -391.5s197.834 -143.5 360.501 -143.5c38 0 74.833 2 110.5 6s70.5 11.167 104.5 21.5s68.5 24.666 103.5 42.999s70.167 41.166 105.5 68.499l-17 -196c-68 -45.333 -135.833 -75.833 -203.5 -91.5s-139.5 -23.5 -215.5 -23.5
c-114.667 0 -213.667 17.5 -297 52.5s-151.666 84.167 -204.999 147.5s-92.666 138.666 -117.999 225.999s-38 184.333 -38 291zM609.995 598.005c-5.33301 -48 0.166016 -82.168 16.499 -102.501s40.166 -31.166 71.499 -32.499s57 7.83398 77 27.501s32.667 53.5 38 101.5
l21 194c4 39.333 -3 68.333 -21 87s-40.667 28 -68 28c-31.333 1.33301 -57.166 -7.83398 -77.499 -27.501s-33.166 -53.5 -38.499 -101.5z" />
    <glyph glyph-name="A" unicode="A" horiz-adv-x="833" 
d="M23 0l229 1434h330l229 -1434h-227l-39 260h-277l-39 -260h-206zM297 455h217l-108 725z" />
    <glyph glyph-name="B" unicode="B" horiz-adv-x="831" 
d="M82 0v1434h340c117.333 0 202.333 -27.333 255 -82s79 -137.334 79 -248.001v-51c0 -74 -11.667 -134.833 -35 -182.5s-60.333 -83.167 -111 -106.5c61.333 -23.333 104.666 -61.333 129.999 -114s38 -117 38 -193v-117c0 -110.667 -28.667 -195 -86 -253
s-142.666 -87 -255.999 -87h-354zM307 205.001h129c38 0 67 10.167 87 30.5s30 57.166 30 110.499v125c0 66.667 -11.333 112.334 -34 137.001s-59.667 37 -111 37h-101v-440zM307 850.001h87.999c42 0 75 10.833 99 32.5s36 61.167 36 118.5v80
c0 52 -9.16699 89.667 -27.5 113s-47.166 35 -86.499 35h-109v-379z" />
    <glyph glyph-name="C" unicode="C" horiz-adv-x="790" 
d="M63 344l-0.000976562 746c0 116 28.333 205 85 267s140.334 93 251.001 93s194.334 -31 251.001 -93s85 -151 85 -267v-140h-213v154c0 52 -10.5 88.5 -31.5 109.5s-49.167 31.5 -84.5 31.5s-63.666 -10.5 -84.999 -31.5s-32 -57.5 -32 -109.5v-774
c0 -52 10.5 -88.333 31.5 -109s49.5 -31 85.5 -31c35.333 0 63.5 10.333 84.5 31s31.5 57 31.5 109v205h213v-191c0 -116 -28.333 -205 -85 -267s-140.334 -93 -251.001 -93s-194.334 31 -251.001 93s-85 151 -85 267z" />
    <glyph glyph-name="D" unicode="D" horiz-adv-x="835" 
d="M82 0v1434h356c113.333 0 197.666 -30.167 252.999 -90.5s83 -148.5 83 -264.5v-725c0 -116 -27.667 -204 -83 -264s-139.666 -90 -252.999 -90h-356zM307 205h127c35.333 0 63.333 10.167 84 30.5s31 56.5 31 108.5v746c0 52 -10.333 88.167 -31 108.5
s-48.667 30.5 -84 30.5h-127v-1024z" />
    <glyph glyph-name="E" unicode="E" horiz-adv-x="753" 
d="M82 0v1434h614v-205h-389v-400h309v-204h-309v-420h389v-205h-614z" />
    <glyph glyph-name="F" unicode="F" horiz-adv-x="704" 
d="M82 0v1434h596v-205h-371v-432h291v-205h-291v-592h-225z" />
    <glyph glyph-name="G" unicode="G" horiz-adv-x="798" 
d="M63 344l-0.000976562 746c0 116 28.333 205 85 267s140.334 93 251.001 93s194.334 -31 251.001 -93s85 -151 85 -267v-140h-213v154c0 52 -10.5 88.5 -31.5 109.5s-49.167 31.5 -84.5 31.5s-63.666 -10.5 -84.999 -31.5s-32 -57.5 -32 -109.5v-774
c0 -52 10.5 -88.333 31.5 -109s49.5 -31 85.5 -31c35.333 0 63.5 10.333 84.5 31s31.5 57 31.5 109v264h-102v205h315v-455c0 -116 -28.333 -205 -85 -267s-140.334 -93 -251.001 -93s-194.334 31 -251.001 93s-85 151 -85 267z" />
    <glyph glyph-name="H" unicode="H" horiz-adv-x="874" 
d="M82 0v1434h225v-615h256v615h230v-1434h-230v614h-256v-614h-225z" />
    <glyph glyph-name="I" unicode="I" horiz-adv-x="389" 
d="M82 0v1434h225v-1434h-225z" />
    <glyph glyph-name="J" unicode="J" horiz-adv-x="524" 
d="M20 0l0.000976562 205c12 -1.33301 25 -2 39 -2h39c35.333 0 65.666 8.83301 90.999 26.5s38 54.5 38 110.5v1094h226v-1078c0 -72.667 -9 -132 -27 -178s-42 -82.333 -72 -109s-64.333 -45.5 -103 -56.5s-79.334 -16.5 -122.001 -16.5h-55.5
c-16.333 0 -34.166 1.33301 -53.499 4z" />
    <glyph glyph-name="K" unicode="K" horiz-adv-x="847" 
d="M82 0v1434h225v-625l295 625h225l-313 -639l313 -795h-231l-219 571l-70 -131v-440h-225z" />
    <glyph glyph-name="L" unicode="L" horiz-adv-x="694" 
d="M82 0v1434h225v-1229h371v-205h-596z" />
    <glyph glyph-name="M" unicode="M" horiz-adv-x="1107" 
d="M80 0v1434h313l166 -1018l154 1018h313v-1434h-213v1028l-156 -1028h-213l-168 1014v-1014h-196z" />
    <glyph glyph-name="N" unicode="N" horiz-adv-x="874" 
d="M80 0v1434h282l232 -859v859h201v-1434h-232l-280 1038v-1038h-203z" />
    <glyph glyph-name="O" unicode="O" 
d="M63 344l-0.000976562 746c0 116 29.5 205 88.5 267s143.833 93 254.5 93s195.334 -31 254.001 -93s88 -151 88 -267v-746c0 -116 -29.5 -205 -88.5 -267s-143.5 -93 -253.5 -93c-110.667 0 -195.5 31 -254.5 93s-88.5 151 -88.5 267zM288.999 330
c0 -52 10.499 -88.667 31.499 -110s49.5 -32 85.5 -32c35.333 0 63.5 10.667 84.5 32s31.5 58 31.5 110v774c0 52 -10.5 88.5 -31.5 109.5s-49.167 31.5 -84.5 31.5s-63.666 -10.5 -84.999 -31.5s-32 -57.5 -32 -109.5v-774z" />
    <glyph glyph-name="P" unicode="P" horiz-adv-x="782" 
d="M82 0v1434h332c113.333 0 197.666 -30.167 252.999 -90.5s83 -148.5 83 -264.5v-186c0 -116 -27.667 -204 -83 -264s-139.666 -90 -252.999 -90h-107v-539h-225zM307 743h107c35.333 0 62.5 9.66699 81.5 29s28.5 55 28.5 107v215c0 52 -9.5 87.5 -28.5 106.5
s-46.167 28.5 -81.5 28.5h-107v-486z" />
    <glyph glyph-name="Q" unicode="Q" 
d="M63 344l-0.000976562 745.999c0 116 29.5 205 88.5 267s143.833 93 254.5 93s195.334 -31 254.001 -93s88 -151 88 -267v-746c0 -80.667 -14.333 -147.667 -43 -201c5.33301 -13.333 12.333 -21.666 21 -24.999s22.667 -5 42 -5h20v-201h-30c-50.667 0 -92 8.5 -124 25.5
s-55.667 41.167 -71 72.5c-23.333 -8 -47.833 -14.333 -73.5 -19s-53.5 -7 -83.5 -7c-110.667 0 -195.5 31 -254.5 93s-88.5 151 -88.5 267zM288.999 329.999c0 -52 10.499 -88.667 31.499 -110s49.5 -32 85.5 -32c35.333 0 63.5 10.667 84.5 32s31.5 58 31.5 110v774
c0 52 -10.5 88.5 -31.5 109.5s-49.167 31.5 -84.5 31.5s-63.666 -10.5 -84.999 -31.5s-32 -57.5 -32 -109.5v-774z" />
    <glyph glyph-name="R" unicode="R" horiz-adv-x="823" 
d="M82 0l0.000976562 1434h340c117.333 0 202.333 -27.333 255 -82s79 -137.334 79 -248.001v-113c0 -147.333 -49.333 -244.333 -148 -291c57.333 -23.333 96.666 -61.166 117.999 -113.499s32 -116.166 32 -191.499v-221c0 -35.333 1.33301 -66.333 4 -93
s9.33398 -53.667 20.001 -81h-229c-2.66699 9.33301 -5.33398 18.166 -8.00098 26.499s-5 18.666 -7 30.999s-3.5 28 -4.5 47s-1.5 42.833 -1.5 71.5v225c0 66.667 -11.5 113.834 -34.5 141.501s-60.5 41.5 -112.5 41.5h-78v-584h-225zM307.001 788h87.999c42 0 75 11 99 33
s36 61.667 36 119v141c0 52 -9.16699 89.667 -27.5 113s-47.166 35 -86.499 35h-109v-441z" />
    <glyph glyph-name="S" unicode="S" horiz-adv-x="765" 
d="M47 344l0.00292969 88h213v-102c0 -52 10.667 -88.333 32 -109s49.666 -31 84.999 -31s63.666 10.333 84.999 31s32 57 32 109c0 49.333 -11 92.666 -33 129.999s-49.333 72.666 -82 105.999s-67.834 66.833 -105.501 100.5s-72.834 70.334 -105.501 110.001
s-60 84.834 -82 135.501s-33 110 -33 178c0 116 27.667 205 83 267s138.333 93 249 93s193.667 -31 249 -93s83 -151 83 -267v-46h-213v60c0 52 -10 88.5 -30 109.5s-47.667 31.5 -83 31.5s-62.833 -10.5 -82.5 -31.5s-29.5 -57.5 -29.5 -109.5
c0 -49.333 10.833 -92.666 32.5 -129.999s48.834 -72.833 81.501 -106.5s67.834 -67.167 105.501 -100.5s72.834 -69.833 105.501 -109.5s60 -84.834 82 -135.501s33 -110 33 -178c0 -116 -28.333 -205 -85 -267s-140.334 -93 -251.001 -93s-194.334 31 -251.001 93
s-85 151 -85 267z" />
    <glyph glyph-name="T" unicode="T" horiz-adv-x="729" 
d="M16 1229v205h697v-205h-236v-1229h-225v1229h-236z" />
    <glyph glyph-name="U" unicode="U" horiz-adv-x="815" 
d="M72 342l0.000976562 1092h225v-1106c0 -52 10.5 -88.333 31.5 -109s49.5 -31 85.5 -31c35.333 0 63.5 10.333 84.5 31s31.5 57 31.5 109v1106h213v-1092c0 -116 -28.333 -205 -85 -267s-140 -93 -250 -93c-110.667 0 -194.334 31 -251.001 93s-85 151 -85 267z" />
    <glyph glyph-name="V" unicode="V" horiz-adv-x="823" 
d="M23 1434h227l172 -1170l172 1170h207l-221 -1434h-336z" />
    <glyph glyph-name="W" unicode="W" horiz-adv-x="1153" 
d="M31 1434h219l121 -1131l108 1131h217l113 -1139l117 1139h196l-159 -1434h-299l-82 764l-82 -764h-310z" />
    <glyph glyph-name="X" unicode="X" horiz-adv-x="880" 
d="M31 0l252 737l-236 697h234l170 -529l174 529h209l-236 -697l252 -737h-238l-184 567l-186 -567h-211z" />
    <glyph glyph-name="Y" unicode="Y" 
d="M8 1434h236l172 -654l172 654h215l-285 -959v-475h-225v475z" />
    <glyph glyph-name="Z" unicode="Z" horiz-adv-x="757" 
d="M47 0v201l428 1028h-407v205h639v-201l-428 -1028h428v-205h-660z" />
    <glyph glyph-name="bracketleft" unicode="[" horiz-adv-x="514" 
d="M96 0v1434h373v-185h-147v-1065h147v-184h-373z" />
    <glyph glyph-name="backslash" unicode="\" horiz-adv-x="780" 
d="M10 1434h195l565 -1434h-195z" />
    <glyph glyph-name="bracketright" unicode="]" horiz-adv-x="514" 
d="M45 0v184h148v1065h-148v185h373v-1434h-373z" />
    <glyph glyph-name="asciicircum" unicode="^" 
d="M41 799l285 635h159l285 -635h-180l-184 430l-185 -430h-180z" />
    <glyph glyph-name="underscore" unicode="_" horiz-adv-x="1024" 
d="M0 -20h1024v-164h-1024v164z" />
    <glyph glyph-name="grave" unicode="`" horiz-adv-x="512" 
d="M90 1737h232l139 -228h-162z" />
    <glyph glyph-name="a" unicode="a" horiz-adv-x="833" 
d="M23 0l229 1434h330l229 -1434h-227l-39 260h-277l-39 -260h-206zM297 455h217l-108 725z" />
    <glyph glyph-name="b" unicode="b" horiz-adv-x="831" 
d="M82 0v1434h340c117.333 0 202.333 -27.333 255 -82s79 -137.334 79 -248.001v-51c0 -74 -11.667 -134.833 -35 -182.5s-60.333 -83.167 -111 -106.5c61.333 -23.333 104.666 -61.333 129.999 -114s38 -117 38 -193v-117c0 -110.667 -28.667 -195 -86 -253
s-142.666 -87 -255.999 -87h-354zM307 205.001h129c38 0 67 10.167 87 30.5s30 57.166 30 110.499v125c0 66.667 -11.333 112.334 -34 137.001s-59.667 37 -111 37h-101v-440zM307 850.001h87.999c42 0 75 10.833 99 32.5s36 61.167 36 118.5v80
c0 52 -9.16699 89.667 -27.5 113s-47.166 35 -86.499 35h-109v-379z" />
    <glyph glyph-name="c" unicode="c" horiz-adv-x="790" 
d="M63 344l-0.000976562 746c0 116 28.333 205 85 267s140.334 93 251.001 93s194.334 -31 251.001 -93s85 -151 85 -267v-140h-213v154c0 52 -10.5 88.5 -31.5 109.5s-49.167 31.5 -84.5 31.5s-63.666 -10.5 -84.999 -31.5s-32 -57.5 -32 -109.5v-774
c0 -52 10.5 -88.333 31.5 -109s49.5 -31 85.5 -31c35.333 0 63.5 10.333 84.5 31s31.5 57 31.5 109v205h213v-191c0 -116 -28.333 -205 -85 -267s-140.334 -93 -251.001 -93s-194.334 31 -251.001 93s-85 151 -85 267z" />
    <glyph glyph-name="d" unicode="d" horiz-adv-x="835" 
d="M82 0v1434h356c113.333 0 197.666 -30.167 252.999 -90.5s83 -148.5 83 -264.5v-725c0 -116 -27.667 -204 -83 -264s-139.666 -90 -252.999 -90h-356zM307 205h127c35.333 0 63.333 10.167 84 30.5s31 56.5 31 108.5v746c0 52 -10.333 88.167 -31 108.5
s-48.667 30.5 -84 30.5h-127v-1024z" />
    <glyph glyph-name="e" unicode="e" horiz-adv-x="753" 
d="M82 0v1434h614v-205h-389v-400h309v-204h-309v-420h389v-205h-614z" />
    <glyph glyph-name="f" unicode="f" horiz-adv-x="704" 
d="M82 0v1434h596v-205h-371v-432h291v-205h-291v-592h-225z" />
    <glyph glyph-name="g" unicode="g" horiz-adv-x="798" 
d="M63 344l-0.000976562 746c0 116 28.333 205 85 267s140.334 93 251.001 93s194.334 -31 251.001 -93s85 -151 85 -267v-140h-213v154c0 52 -10.5 88.5 -31.5 109.5s-49.167 31.5 -84.5 31.5s-63.666 -10.5 -84.999 -31.5s-32 -57.5 -32 -109.5v-774
c0 -52 10.5 -88.333 31.5 -109s49.5 -31 85.5 -31c35.333 0 63.5 10.333 84.5 31s31.5 57 31.5 109v264h-102v205h315v-455c0 -116 -28.333 -205 -85 -267s-140.334 -93 -251.001 -93s-194.334 31 -251.001 93s-85 151 -85 267z" />
    <glyph glyph-name="h" unicode="h" horiz-adv-x="874" 
d="M82 0v1434h225v-615h256v615h230v-1434h-230v614h-256v-614h-225z" />
    <glyph glyph-name="i" unicode="i" horiz-adv-x="389" 
d="M82 0v1434h225v-1434h-225z" />
    <glyph glyph-name="j" unicode="j" horiz-adv-x="524" 
d="M20 0l0.000976562 205c12 -1.33301 25 -2 39 -2h39c35.333 0 65.666 8.83301 90.999 26.5s38 54.5 38 110.5v1094h226v-1078c0 -72.667 -9 -132 -27 -178s-42 -82.333 -72 -109s-64.333 -45.5 -103 -56.5s-79.334 -16.5 -122.001 -16.5h-55.5
c-16.333 0 -34.166 1.33301 -53.499 4z" />
    <glyph glyph-name="k" unicode="k" horiz-adv-x="847" 
d="M82 0v1434h225v-625l295 625h225l-313 -639l313 -795h-231l-219 571l-70 -131v-440h-225z" />
    <glyph glyph-name="l" unicode="l" horiz-adv-x="694" 
d="M82 0v1434h225v-1229h371v-205h-596z" />
    <glyph glyph-name="m" unicode="m" horiz-adv-x="1107" 
d="M80 0v1434h313l166 -1018l154 1018h313v-1434h-213v1028l-156 -1028h-213l-168 1014v-1014h-196z" />
    <glyph glyph-name="n" unicode="n" horiz-adv-x="874" 
d="M80 0v1434h282l232 -859v859h201v-1434h-232l-280 1038v-1038h-203z" />
    <glyph glyph-name="o" unicode="o" 
d="M63 344l-0.000976562 746c0 116 29.5 205 88.5 267s143.833 93 254.5 93s195.334 -31 254.001 -93s88 -151 88 -267v-746c0 -116 -29.5 -205 -88.5 -267s-143.5 -93 -253.5 -93c-110.667 0 -195.5 31 -254.5 93s-88.5 151 -88.5 267zM288.999 330
c0 -52 10.499 -88.667 31.499 -110s49.5 -32 85.5 -32c35.333 0 63.5 10.667 84.5 32s31.5 58 31.5 110v774c0 52 -10.5 88.5 -31.5 109.5s-49.167 31.5 -84.5 31.5s-63.666 -10.5 -84.999 -31.5s-32 -57.5 -32 -109.5v-774z" />
    <glyph glyph-name="p" unicode="p" horiz-adv-x="772" 
d="M82 0v1434h332c113.333 0 197.666 -30.167 252.999 -90.5s83 -148.5 83 -264.5v-186c0 -116 -27.667 -204 -83 -264s-139.666 -90 -252.999 -90h-107v-539h-225zM307 743h107c35.333 0 62.5 9.66699 81.5 29s28.5 55 28.5 107v215c0 52 -9.5 87.5 -28.5 106.5
s-46.167 28.5 -81.5 28.5h-107v-486z" />
    <glyph glyph-name="q" unicode="q" 
d="M63 344l-0.000976562 745.999c0 116 29.5 205 88.5 267s143.833 93 254.5 93s195.334 -31 254.001 -93s88 -151 88 -267v-746c0 -80.667 -14.333 -147.667 -43 -201c5.33301 -13.333 12.333 -21.666 21 -24.999s22.667 -5 42 -5h20v-201h-30c-50.667 0 -92 8.5 -124 25.5
s-55.667 41.167 -71 72.5c-23.333 -8 -47.833 -14.333 -73.5 -19s-53.5 -7 -83.5 -7c-110.667 0 -195.5 31 -254.5 93s-88.5 151 -88.5 267zM288.999 329.999c0 -52 10.499 -88.667 31.499 -110s49.5 -32 85.5 -32c35.333 0 63.5 10.667 84.5 32s31.5 58 31.5 110v774
c0 52 -10.5 88.5 -31.5 109.5s-49.167 31.5 -84.5 31.5s-63.666 -10.5 -84.999 -31.5s-32 -57.5 -32 -109.5v-774z" />
    <glyph glyph-name="r" unicode="r" horiz-adv-x="823" 
d="M82 0l0.000976562 1434h340c117.333 0 202.333 -27.333 255 -82s79 -137.334 79 -248.001v-113c0 -147.333 -49.333 -244.333 -148 -291c57.333 -23.333 96.666 -61.166 117.999 -113.499s32 -116.166 32 -191.499v-221c0 -35.333 1.33301 -66.333 4 -93
s9.33398 -53.667 20.001 -81h-229c-2.66699 9.33301 -5.33398 18.166 -8.00098 26.499s-5 18.666 -7 30.999s-3.5 28 -4.5 47s-1.5 42.833 -1.5 71.5v225c0 66.667 -11.5 113.834 -34.5 141.501s-60.5 41.5 -112.5 41.5h-78v-584h-225zM307.001 788h87.999c42 0 75 11 99 33
s36 61.667 36 119v141c0 52 -9.16699 89.667 -27.5 113s-47.166 35 -86.499 35h-109v-441z" />
    <glyph glyph-name="s" unicode="s" horiz-adv-x="765" 
d="M47 344l0.00292969 88h213v-102c0 -52 10.667 -88.333 32 -109s49.666 -31 84.999 -31s63.666 10.333 84.999 31s32 57 32 109c0 49.333 -11 92.666 -33 129.999s-49.333 72.666 -82 105.999s-67.834 66.833 -105.501 100.5s-72.834 70.334 -105.501 110.001
s-60 84.834 -82 135.501s-33 110 -33 178c0 116 27.667 205 83 267s138.333 93 249 93s193.667 -31 249 -93s83 -151 83 -267v-46h-213v60c0 52 -10 88.5 -30 109.5s-47.667 31.5 -83 31.5s-62.833 -10.5 -82.5 -31.5s-29.5 -57.5 -29.5 -109.5
c0 -49.333 10.833 -92.666 32.5 -129.999s48.834 -72.833 81.501 -106.5s67.834 -67.167 105.501 -100.5s72.834 -69.833 105.501 -109.5s60 -84.834 82 -135.501s33 -110 33 -178c0 -116 -28.333 -205 -85 -267s-140.334 -93 -251.001 -93s-194.334 31 -251.001 93
s-85 151 -85 267z" />
    <glyph glyph-name="t" unicode="t" horiz-adv-x="729" 
d="M16 1229v205h697v-205h-236v-1229h-225v1229h-236z" />
    <glyph glyph-name="u" unicode="u" horiz-adv-x="815" 
d="M72 342l0.000976562 1092h225v-1106c0 -52 10.5 -88.333 31.5 -109s49.5 -31 85.5 -31c35.333 0 63.5 10.333 84.5 31s31.5 57 31.5 109v1106h213v-1092c0 -116 -28.333 -205 -85 -267s-140 -93 -250 -93c-110.667 0 -194.334 31 -251.001 93s-85 151 -85 267z" />
    <glyph glyph-name="v" unicode="v" horiz-adv-x="823" 
d="M23 1434h227l172 -1170l172 1170h207l-221 -1434h-336z" />
    <glyph glyph-name="w" unicode="w" horiz-adv-x="1153" 
d="M31 1434h219l121 -1131l108 1131h217l113 -1139l117 1139h196l-159 -1434h-299l-82 764l-82 -764h-310z" />
    <glyph glyph-name="x" unicode="x" horiz-adv-x="880" 
d="M31 0l252 737l-236 697h234l170 -529l174 529h209l-236 -697l252 -737h-238l-184 567l-186 -567h-211z" />
    <glyph glyph-name="y" unicode="y" 
d="M8 1434h236l172 -654l172 654h215l-285 -959v-475h-225v475z" />
    <glyph glyph-name="z" unicode="z" horiz-adv-x="757" 
d="M47 0v201l428 1028h-407v205h639v-201l-428 -1028h428v-205h-660z" />
    <glyph glyph-name="braceleft" unicode="{" horiz-adv-x="526" 
d="M23 625l-0.000976562 183.999c44 0 73 8.5 87 25.5s22.333 49.5 25 97.5l17 274c5.33301 78 28.5 135.5 69.5 172.5s93.5 55.5 157.5 55.5h115v-185h-33c-35.333 0 -61.666 -9.83301 -78.999 -29.5s-27.333 -58.167 -30 -115.5l-10 -205
c-1.33301 -19.333 -4 -38.5 -8 -57.5s-10.833 -36.667 -20.5 -53s-23 -30.666 -40 -42.999s-38.5 -21.833 -64.5 -28.5c26 -6.66699 47.5 -16.5 64.5 -29.5s30.333 -27.833 40 -44.5s16.5 -34.167 20.5 -52.5s6.66699 -36.833 8 -55.5l10 -205
c2.66699 -57.333 12.667 -96 30 -116s43.666 -30 78.999 -30h33v-184h-115c-64 0 -116.5 18.5 -157.5 55.5s-64.167 94.167 -69.5 171.5l-17 275c-2.66699 48 -11.167 80.5 -25.5 97.5s-43.166 25.5 -86.499 25.5z" />
    <glyph glyph-name="bar" unicode="|" horiz-adv-x="1024" 
d="M430 -133v1700h184v-1700h-184z" />
    <glyph glyph-name="braceright" unicode="}" horiz-adv-x="526" 
d="M33 0l0.000976562 183.999h33c35.333 0 61.5 10 78.5 30s26.833 58.667 29.5 116l10 205c1.33301 38 10.833 74.5 28.5 109.5s52.5 59.167 104.5 72.5c-52 13.333 -86.833 37.5 -104.5 72.5s-27.167 71.5 -28.5 109.5l-10 205c-2.66699 57.333 -12.5 95.833 -29.5 115.5
s-43.167 29.5 -78.5 29.5h-33v185h114c64 0 116.667 -18.5 158 -55.5s64.666 -94.5 69.999 -172.5l16 -274c2.66699 -48 11.167 -80.5 25.5 -97.5s43.5 -25.5 87.5 -25.5v-184c-44 0 -73.167 -8.66699 -87.5 -26s-22.833 -49.666 -25.5 -96.999l-16 -275
c-5.33301 -78 -28.5 -135.333 -69.5 -172s-93.833 -55 -158.5 -55h-114z" />
    <glyph glyph-name="asciitilde" unicode="~" 
d="M16 680c24.667 36.667 47.667 66.6699 69 90.0029s41.5 42.166 60.5 56.499s38 24.166 57 29.499s38.167 8 57.5 8c27.333 0 54 -6.5 80 -19.5s51.333 -27.333 76 -43l70.5 -43c22.333 -13 44.5 -19.5 66.5 -19.5c23.333 0 43.833 8.66699 61.5 26
s42.167 47.666 73.5 90.999l107 -111c-49.333 -72.667 -92.833 -120.167 -130.5 -142.5s-75.5 -33.5 -113.5 -33.5c-27.333 0 -54 6.5 -80 19.5s-51.333 27.333 -76 43l-70.5 43c-22.333 13 -44.5 19.5 -66.5 19.5c-23.333 0 -43.833 -8.5 -61.5 -25.5
s-42.167 -47.167 -73.5 -90.5z" />
    <glyph glyph-name="uni00A0" unicode="&#xa0;" horiz-adv-x="317" 
 />
    <glyph glyph-name="cent" unicode="&#xa2;" 
d="M74 426l-0.000976562 582c0 96.667 20.167 174.667 60.5 234s99.833 98 178.5 116v106h185v-104c82 -16.667 143.667 -55 185 -115s62 -139 62 -237v-99h-213v113c0 52 -10.5 88.5 -31.5 109.5s-49.167 31.5 -84.5 31.5s-63.666 -10.5 -84.999 -31.5
s-32 -57.5 -32 -109.5v-610c0 -52 10.5 -88.333 31.5 -109s49.5 -31 85.5 -31c35.333 0 63.5 10.333 84.5 31s31.5 57 31.5 109v163h213v-149c0 -98 -20.667 -177.5 -62 -238.5s-103 -98.833 -185 -113.5v-105h-185v107c-79.333 16.667 -139 54.667 -179 114
s-60 138 -60 236z" />
    <glyph glyph-name="sterling" unicode="&#xa3;" 
d="M61 0v197.001c53.333 0 98.5 20.333 135.5 61s56.833 98 59.5 172h-166v174h137c-12 35.333 -26.167 68.833 -42.5 100.5s-32.333 65.5 -48 101.5s-28.667 76.5 -39 121.5s-15.5 99.167 -15.5 162.5c0 116 27.667 205 83 267s138.333 93 249 93s193.5 -31 248.5 -93
s82.5 -151 82.5 -267v-142h-213v156c0 52 -9.83301 88.5 -29.5 109.5s-47.167 31.5 -82.5 31.5s-63 -10.5 -83 -31.5s-30 -57.5 -30 -109.5c0 -64 5.5 -118.667 16.5 -164s23.667 -86.333 38 -123s29.333 -71.667 45 -105s28.167 -69.333 37.5 -108h248v-174h-233
c-5.33301 -52 -18 -96.333 -38 -133s-45.667 -67.334 -77 -92.001h387v-205h-670z" />
    <glyph glyph-name="yen" unicode="&#xa5;" 
d="M14 1434h236l166 -633l166 633h215l-262 -879h170v-113h-187v-92h187v-112h-187v-238h-225v238h-187v112h187v92h-187v113h168z" />
    <glyph glyph-name="dieresis" unicode="&#xa8;" horiz-adv-x="512" 
d="M2 1509v197h197v-197h-197zM313 1509v197h197v-197h-197z" />
    <glyph glyph-name="copyright" unicode="&#xa9;" horiz-adv-x="1507" 
d="M41 717c0 106.667 18.167 204.667 54.5 294s86.166 166.666 149.499 231.999s138.666 116.166 225.999 152.499s181.666 54.5 282.999 54.5s195.5 -18.167 282.5 -54.5s162.333 -87.166 226 -152.499s113.5 -142.666 149.5 -231.999s54 -187.333 54 -294
s-18 -204.667 -54 -294s-85.833 -166.833 -149.5 -232.5s-139.167 -116.5 -226.5 -152.5s-181.333 -54 -282 -54c-101.333 0 -195.666 18 -282.999 54s-162.666 86.833 -225.999 152.5s-113.166 143.167 -149.499 232.5s-54.5 187.333 -54.5 294zM188 717
c0 -86 14.3311 -164.833 42.998 -236.5s68.334 -133.834 119.001 -186.501s110.5 -93.667 179.5 -123s143.833 -44 224.5 -44s155.334 14.667 224.001 44s128.334 70.333 179.001 123s90.334 114.834 119.001 186.501s43 150.5 43 236.5s-14.333 164.833 -43 236.5
s-68.334 133.834 -119.001 186.501s-110.5 93.667 -179.5 123s-143.5 44 -223.5 44c-80.667 0 -155.5 -14.667 -224.5 -44s-128.833 -70.333 -179.5 -123s-90.334 -114.834 -119.001 -186.501s-43 -150.5 -43 -236.5zM513.998 516l0.000976562 397
c0 82 19.167 144.833 57.5 188.5s96.166 65.5 173.499 65.5c78 0 136.167 -21.833 174.5 -65.5s57.5 -106.5 57.5 -188.5v-73h-148v86c0 35.333 -7.16699 60.5 -21.5 75.5s-33.5 22.5 -57.5 22.5c-24.667 0 -44.167 -7.5 -58.5 -22.5s-21.5 -40.167 -21.5 -75.5v-418
c0 -35.333 7.16699 -60.166 21.5 -74.499s33.833 -21.5 58.5 -21.5s44 7.16699 58 21.5s21 39.166 21 74.499v123h148v-115c0 -80.667 -19.167 -142.5 -57.5 -185.5s-96.5 -64.5 -174.5 -64.5s-136 21.5 -174 64.5s-57 104.833 -57 185.5z" />
    <glyph glyph-name="guillemotleft" unicode="&#xab;" horiz-adv-x="727" 
d="M33 719l127 526h202l-124 -526l124 -559h-202zM365 719l127 526h202l-125 -526l125 -559h-202z" />
    <glyph glyph-name="uni00AD" unicode="&#xad;" horiz-adv-x="552" 
d="M72 614v205h409v-205h-409z" />
    <glyph glyph-name="registered" unicode="&#xae;" horiz-adv-x="1507" 
d="M41 717c0 106.667 18.167 204.667 54.5 294s86.166 166.666 149.499 231.999s138.666 116.166 225.999 152.499s181.666 54.5 282.999 54.5s195.5 -18.167 282.5 -54.5s162.333 -87.166 226 -152.499s113.5 -142.666 149.5 -231.999s54 -187.333 54 -294
s-18 -204.667 -54 -294s-85.833 -166.833 -149.5 -232.5s-139.167 -116.5 -226.5 -152.5s-181.333 -54 -282 -54c-101.333 0 -195.666 18 -282.999 54s-162.666 86.833 -225.999 152.5s-113.166 143.167 -149.499 232.5s-54.5 187.333 -54.5 294zM188 717
c0 -86 14.3311 -164.833 42.998 -236.5s68.334 -133.834 119.001 -186.501s110.5 -93.667 179.5 -123s143.833 -44 224.5 -44s155.334 14.667 224.001 44s128.334 70.333 179.001 123s90.334 114.834 119.001 186.501s43 150.5 43 236.5s-14.333 164.833 -43 236.5
s-68.334 133.834 -119.001 186.501s-110.5 93.667 -179.5 123s-143.5 44 -223.5 44c-80.667 0 -155.5 -14.667 -224.5 -44s-128.833 -70.333 -179.5 -123s-90.334 -114.834 -119.001 -186.501s-43 -150.5 -43 -236.5zM527.998 279v875.999h238
c80.667 0 139.334 -18.833 176.001 -56.5s55 -95.167 55 -172.5v-19c0 -104 -35.333 -171.333 -106 -202c39.333 -16.667 66.833 -43.167 82.5 -79.5s23.5 -80.166 23.5 -131.499v-95c0 -23.333 1.16699 -44.5 3.5 -63.5s7.5 -37.833 15.5 -56.5h-160
c-2.66699 6.66699 -5 13 -7 19s-3.33301 13.167 -4 21.5s-1.33398 19 -2.00098 32s-1 29.5 -1 49.5v95c0 48 -8.5 81.167 -25.5 99.5s-43.5 27.5 -79.5 27.5h-53v-344h-156zM683.998 765.999h64c28.667 0 51.5 7.5 68.5 22.5s25.5 42.167 25.5 81.5v37
c0 69.333 -28 104.333 -84 105h-74v-246z" />
    <glyph glyph-name="acute" unicode="&#xb4;" horiz-adv-x="512" 
d="M55 1509l140 228h221l-209 -228h-152z" />
    <glyph glyph-name="cedilla" unicode="&#xb8;" horiz-adv-x="512" 
d="M53 -162l151.999 -0.00195312v-16c0 -15.333 4.66699 -26 14 -32s19.666 -9 30.999 -9c34 0 51 16.333 51 49c0 35.333 -24.667 53 -74 53h-20v146h98v-109c50.667 0 88.667 -7.16699 114 -21.5s38 -39.166 38 -74.499c0 -27.333 -5.16699 -49.166 -15.5 -65.499
s-24.666 -29 -42.999 -38s-40.166 -14.833 -65.499 -17.5s-53 -4 -83 -4c-56 0 -102.833 7.83301 -140.5 23.5s-56.5 47.5 -56.5 95.5v20z" />
    <glyph glyph-name="guillemotright" unicode="&#xbb;" horiz-adv-x="727" 
d="M33 160l125 559l-125 526h203l126 -526l-126 -559h-203zM365 160l124 559l-124 526h202l127 -526l-127 -559h-202z" />
    <glyph glyph-name="circumflex" unicode="&#x2c6;" horiz-adv-x="512" 
d="M-27 1509l183 228h202l183 -228h-193l-92 113l-90 -113h-193z" />
    <glyph glyph-name="ring" unicode="&#x2da;" horiz-adv-x="512" 
d="M92 1667c0 46.667 15.667 85.667 47 117s70.333 47 117 47s85.667 -15.667 117 -47s47 -70.333 47 -117s-15.667 -85.667 -47 -117s-70.333 -47 -117 -47s-85.667 15.667 -117 47s-47 70.333 -47 117zM195 1667c0 -18 5.66699 -32.667 17 -44s26 -17 44 -17
s32.667 5.66699 44 17s17 26 17 44s-5.66699 32.833 -17 44.5s-26 17.5 -44 17.5s-32.667 -5.83301 -44 -17.5s-17 -26.5 -17 -44.5z" />
    <glyph glyph-name="tilde" unicode="&#x2dc;" horiz-adv-x="512" 
d="M-20 1577c19.333 52 44.167 88.166 74.5 108.499s63.5 30.5 99.5 30.5c22 0 40.667 -2.66699 56 -8s30.166 -11.166 44.499 -17.499l41 -17.5c13 -5.33301 27.167 -8 42.5 -8c19.333 0 35.833 3.5 49.5 10.5s26.5 23.167 38.5 48.5l109 -75
c-19.333 -52 -44.333 -88.333 -75 -109s-64 -31 -100 -31c-22 0 -40.667 2.83301 -56 8.5s-30.166 11.5 -44.499 17.5l-41 17.5c-13 5.66699 -27.167 8.5 -42.5 8.5c-19.333 0 -35.833 -3.5 -49.5 -10.5s-26.5 -23.5 -38.5 -49.5z" />
    <glyph glyph-name="uni0401" unicode="&#x401;" horiz-adv-x="753" 
d="M82 0v1434h614v-205h-389v-400h309v-204h-309v-420h389v-205h-614zM133 1509v197h197v-197h-197zM444 1509v197h197v-197h-197z" />
    <glyph glyph-name="uni0410" unicode="&#x410;" horiz-adv-x="833" 
d="M23 0l229 1434h330l229 -1434h-227l-39 260h-277l-39 -260h-206zM297 455h217l-108 725z" />
    <glyph glyph-name="uni0411" unicode="&#x411;" horiz-adv-x="849" 
d="M84 0v1434h631v-205h-406v-367h131c113.333 0 198.333 -30 255 -90s85 -148 85 -264v-154c0 -116 -28.333 -204 -85 -264s-141.667 -90 -255 -90h-356zM309 205h131c35.333 0 63.333 9.5 84 28.5s31 54.5 31 106.5v182c0 52 -10.167 87.5 -30.5 106.5
s-48.5 28.5 -84.5 28.5h-131v-452z" />
    <glyph glyph-name="uni0412" unicode="&#x412;" horiz-adv-x="831" 
d="M82 0v1434h340c117.333 0 202.333 -27.333 255 -82s79 -137.334 79 -248.001v-51c0 -74 -11.667 -134.833 -35 -182.5s-60.333 -83.167 -111 -106.5c61.333 -23.333 104.666 -61.333 129.999 -114s38 -117 38 -193v-117c0 -110.667 -28.667 -195 -86 -253
s-142.666 -87 -255.999 -87h-354zM307 205.001h129c38 0 67 10.167 87 30.5s30 57.166 30 110.499v125c0 66.667 -11.333 112.334 -34 137.001s-59.667 37 -111 37h-101v-440zM307 850.001h87.999c42 0 75 10.833 99 32.5s36 61.167 36 118.5v80
c0 52 -9.16699 89.667 -27.5 113s-47.166 35 -86.499 35h-109v-379z" />
    <glyph glyph-name="uni0413" unicode="&#x413;" horiz-adv-x="747" 
d="M84 0v1434h594v-205h-369v-1229h-225z" />
    <glyph glyph-name="uni0414" unicode="&#x414;" horiz-adv-x="999" 
d="M33 -193l0.000976562 393.999h88c19.333 24.667 32.666 51.334 39.999 80.001s12.333 64 15 106l51 1047h631v-1233h98v-394h-223v193h-481v-193h-219zM334.001 200.999l295 -0.000976562v1028h-191l-41 -838c-2.66699 -54.667 -9.16699 -95.667 -19.5 -123
s-24.833 -49.666 -43.5 -66.999z" />
    <glyph glyph-name="uni0415" unicode="&#x415;" horiz-adv-x="753" 
d="M82 0v1434h614v-205h-389v-400h309v-204h-309v-420h389v-205h-614z" />
    <glyph glyph-name="uni0416" unicode="&#x416;" horiz-adv-x="1236" 
d="M16 0l279 846l-279 588h226l266 -580v580h223v-580l266 580h226l-277 -582l277 -852h-232l-205 635l-55 -109v-526h-223v526l-55 111l-205 -637h-232z" />
    <glyph glyph-name="uni0417" unicode="&#x417;" 
d="M70 344l0.000976562 157.999h213v-172c0 -52 10.5 -88.667 31.5 -110s49.167 -32 84.5 -32s63.666 11 84.999 33s32 65 32 129v113c0 66.667 -11.667 113.667 -35 141s-60.666 41 -111.999 41h-56v205h68c42 0 75 10.833 99 32.5s36 61.167 36 118.5v80
c0 64 -10.5 107.333 -31.5 130s-49.5 34 -85.5 34c-35.333 0 -63.833 -10.5 -85.5 -31.5s-32.5 -57.5 -32.5 -109.5v-117h-207v107c0 116 27.667 204.333 83 265s138.333 91 249 91s194.167 -31 250.5 -93s84.5 -151 84.5 -267v-37c0 -152.667 -52.333 -251 -157 -295
c57.333 -24.667 97.833 -62.667 121.5 -114s35.5 -113.666 35.5 -186.999v-113c0 -116 -28.333 -205 -85 -267s-140 -93 -250 -93c-110.667 0 -194.334 31 -251.001 93s-85 151 -85 267z" />
    <glyph glyph-name="uni0418" unicode="&#x418;" horiz-adv-x="874" 
d="M82 0v1434h201v-908l82 316l184 592h248v-1434h-203v1010l-92 -353l-189 -657h-231z" />
    <glyph glyph-name="uni0419" unicode="&#x419;" horiz-adv-x="878" 
d="M82 0v1434h201v-908l82 316l184 592h248v-1434h-203v1010l-92 -353l-189 -657h-231zM207 1753h139c2.66699 -38 11.834 -63.167 27.501 -75.5s38.5 -18.5 68.5 -18.5c31.333 0 55.666 6.16699 72.999 18.5s27.333 37.5 30 75.5h137
c0 -69.333 -19.833 -124.5 -59.5 -165.5s-99.834 -61.5 -180.501 -61.5c-79.333 0 -137.666 20.5 -174.999 61.5s-57.333 96.167 -60 165.5z" />
    <glyph glyph-name="uni041A" unicode="&#x41a;" horiz-adv-x="847" 
d="M82 0v1434h225v-625l295 625h225l-313 -639l313 -795h-231l-219 571l-70 -131v-440h-225z" />
    <glyph glyph-name="uni041B" unicode="&#x41b;" horiz-adv-x="921" 
d="M18 -2v204.999c26 0 47.667 1.33301 65 4s31.333 9.16699 42 19.5s18.5 25.333 23.5 45s8.16699 45.834 9.5 78.501l37 1084h636v-1434h-229v1229h-196l-25 -867c-4 -131.333 -31.667 -224.833 -83 -280.5s-133 -83.5 -245 -83.5h-35z" />
    <glyph glyph-name="uni041C" unicode="&#x41c;" horiz-adv-x="1107" 
d="M80 0v1434h313l166 -1018l154 1018h313v-1434h-213v1028l-156 -1028h-213l-168 1014v-1014h-196z" />
    <glyph glyph-name="uni041D" unicode="&#x41d;" horiz-adv-x="874" 
d="M82 0v1434h225v-615h256v615h230v-1434h-230v614h-256v-614h-225z" />
    <glyph glyph-name="uni041E" unicode="&#x41e;" 
d="M63 344l-0.000976562 746c0 116 29.5 205 88.5 267s143.833 93 254.5 93s195.334 -31 254.001 -93s88 -151 88 -267v-746c0 -116 -29.5 -205 -88.5 -267s-143.5 -93 -253.5 -93c-110.667 0 -195.5 31 -254.5 93s-88.5 151 -88.5 267zM288.999 330
c0 -52 10.499 -88.667 31.499 -110s49.5 -32 85.5 -32c35.333 0 63.5 10.667 84.5 32s31.5 58 31.5 110v774c0 52 -10.5 88.5 -31.5 109.5s-49.167 31.5 -84.5 31.5s-63.666 -10.5 -84.999 -31.5s-32 -57.5 -32 -109.5v-774z" />
    <glyph glyph-name="uni041F" unicode="&#x41f;" horiz-adv-x="874" 
d="M82 0v1434h711v-1434h-230v1229h-256v-1229h-225z" />
    <glyph glyph-name="uni0420" unicode="&#x420;" horiz-adv-x="772" 
d="M82 0v1434h332c113.333 0 197.666 -30.167 252.999 -90.5s83 -148.5 83 -264.5v-186c0 -116 -27.667 -204 -83 -264s-139.666 -90 -252.999 -90h-107v-539h-225zM307 743h107c35.333 0 62.5 9.66699 81.5 29s28.5 55 28.5 107v215c0 52 -9.5 87.5 -28.5 106.5
s-46.167 28.5 -81.5 28.5h-107v-486z" />
    <glyph glyph-name="uni0421" unicode="&#x421;" horiz-adv-x="790" 
d="M63 344l-0.000976562 746c0 116 28.333 205 85 267s140.334 93 251.001 93s194.334 -31 251.001 -93s85 -151 85 -267v-140h-213v154c0 52 -10.5 88.5 -31.5 109.5s-49.167 31.5 -84.5 31.5s-63.666 -10.5 -84.999 -31.5s-32 -57.5 -32 -109.5v-774
c0 -52 10.5 -88.333 31.5 -109s49.5 -31 85.5 -31c35.333 0 63.5 10.333 84.5 31s31.5 57 31.5 109v205h213v-191c0 -116 -28.333 -205 -85 -267s-140.334 -93 -251.001 -93s-194.334 31 -251.001 93s-85 151 -85 267z" />
    <glyph glyph-name="uni0422" unicode="&#x422;" horiz-adv-x="729" 
d="M16 1229v205h697v-205h-236v-1229h-225v1229h-236z" />
    <glyph glyph-name="uni0423" unicode="&#x423;" horiz-adv-x="835" 
d="M16 1434l224 0.00292969l122 -490l70 -336l53 334l103 492h235l-241 -1069c-13.333 -64 -30 -120.333 -50 -169s-46.833 -88.334 -80.5 -119.001s-76.667 -52.834 -129 -66.501s-117.5 -17.834 -195.5 -12.501v201c57.333 -4 102.333 1.5 135 16.5s54 48.167 64 99.5
l2 13z" />
    <glyph glyph-name="uni0424" unicode="&#x424;" horiz-adv-x="1193" 
d="M63 516v391c0 116 27.667 204.167 83 264.5s139.666 90.5 252.999 90.5h84v172h222v-172h83c113.333 0 197.666 -30.167 252.999 -90.5s83 -148.5 83 -264.5v-391c0 -116 -27.667 -204 -83 -264s-139.666 -90 -252.999 -90h-83v-162h-222v162h-84
c-113.333 0 -197.666 30 -252.999 90s-83 148 -83 264zM287 502c0 -52 9.83301 -89.001 29.5 -111.001s47.167 -33 82.5 -33h84v705h-84c-35.333 0 -62.833 -10.667 -82.5 -32s-29.5 -57.666 -29.5 -108.999v-420zM705 357.999h83c35.333 0 63 11 83 33s30 59 30 111v420
c0 52 -9.83301 88.5 -29.5 109.5s-47.5 31.5 -83.5 31.5h-83v-705z" />
    <glyph glyph-name="uni0425" unicode="&#x425;" horiz-adv-x="880" 
d="M31 0l252 737l-236 697h234l170 -529l174 529h209l-236 -697l252 -737h-238l-184 567l-186 -567h-211z" />
    <glyph glyph-name="uni0426" unicode="&#x426;" horiz-adv-x="931" 
d="M82 0v1434h225v-1229h256v1229h230v-1233h98v-394h-219v193h-590z" />
    <glyph glyph-name="uni0427" unicode="&#x427;" horiz-adv-x="849" 
d="M68 827v607h225v-588c0 -48 13 -83.5 39 -106.5s56.667 -34.5 92 -34.5s63.666 12.5 84.999 37.5s32 61.5 32 109.5v582h225v-1434h-225v578c-24.667 -27.333 -55.167 -47.5 -91.5 -60.5s-70.166 -19.5 -101.499 -19.5c-92.667 0 -162.5 30.333 -209.5 91
s-70.5 140 -70.5 238z" />
    <glyph glyph-name="uni0428" unicode="&#x428;" horiz-adv-x="1228" 
d="M82 0v1434h225v-1229h195v1229h225v-1229h195v1229h225v-1434h-1065z" />
    <glyph glyph-name="uni0429" unicode="&#x429;" horiz-adv-x="1288" 
d="M82 0v1434h225v-1229h195v1229h225v-1229h195v1229h225v-1233h100v-394h-219v193h-946z" />
    <glyph glyph-name="uni042A" unicode="&#x42a;" horiz-adv-x="899" 
d="M16 1229v205h387v-539h107c113.333 0 197.666 -30 252.999 -90s83 -148 83 -264v-187c0 -116 -27.667 -204 -83 -264s-139.666 -90 -252.999 -90h-332v1229h-162zM403 205h107c35.333 0 62.666 9.5 81.999 28.5s29 54.5 29 106.5v215c0 52 -9.66699 87.5 -29 106.5
s-46.666 28.5 -81.999 28.5h-107v-485z" />
    <glyph glyph-name="uni042B" unicode="&#x42b;" horiz-adv-x="1185" 
d="M82 0v1434h225v-539h107c113.333 0 197.666 -30 252.999 -90s83 -148 83 -264v-187c0 -116 -27.667 -204 -83 -264s-139.666 -90 -252.999 -90h-332zM307 205h107c35.333 0 62.5 9.5 81.5 28.5s28.5 54.5 28.5 106.5v215c0 52 -9.5 87.5 -28.5 106.5
s-46.167 28.5 -81.5 28.5h-107v-485zM879 0v1434h225v-1434h-225z" />
    <glyph glyph-name="uni042C" unicode="&#x42c;" horiz-adv-x="802" 
d="M82 0v1434h225v-539h107c113.333 0 197.666 -30 252.999 -90s83 -148 83 -264v-187c0 -116 -27.667 -204 -83 -264s-139.666 -90 -252.999 -90h-332zM307 205h107c35.333 0 62.5 9.5 81.5 28.5s28.5 54.5 28.5 106.5v215c0 52 -9.5 87.5 -28.5 106.5
s-46.167 28.5 -81.5 28.5h-107v-485z" />
    <glyph glyph-name="uni042D" unicode="&#x42d;" horiz-adv-x="790" 
d="M53 344l0.000976562 170h213v-184c0 -52 10.667 -88.333 32 -109s49.666 -31 84.999 -31s63.666 10.333 84.999 31s32 57 32 109v309h-207v205h207v260c0 52 -10.667 88.5 -32 109.5s-49.666 31.5 -84.999 31.5s-63.666 -10.5 -84.999 -31.5s-32 -57.5 -32 -109.5v-135
h-209v121c0 116 27.667 205 83 267s138.333 93 249 93s194.334 -31 251.001 -93s85 -151 85 -267v-746c0 -116 -28.333 -205 -85 -267s-140.334 -93 -251.001 -93s-194.334 31 -251.001 93s-85 151 -85 267z" />
    <glyph glyph-name="uni042E" unicode="&#x42e;" horiz-adv-x="1226" 
d="M82 0v1434h225v-615h168v271c0 116 29.333 205 88 267s143.334 93 254.001 93s195.334 -31 254.001 -93s88 -151 88 -267v-746c0 -116 -29.333 -205 -88 -267s-143.334 -93 -254.001 -93s-195.334 31 -254.001 93s-88 151 -88 267v270h-168v-614h-225zM700 330
c0 -52 10.667 -88.667 32 -110s49.666 -32 84.999 -32s63.666 10.667 84.999 32s32 58 32 110v774c0 52 -10.667 88.5 -32 109.5s-49.666 31.5 -84.999 31.5s-63.666 -10.5 -84.999 -31.5s-32 -57.5 -32 -109.5v-774z" />
    <glyph glyph-name="uni042F" unicode="&#x42f;" horiz-adv-x="823" 
d="M41 0c10.667 27.333 17.501 54.3281 20.501 80.9951s4.5 57.667 4.5 93v221c0 75.333 10.5 139.333 31.5 192s60.167 90.334 117.5 113.001c-98 46.667 -147 143.667 -147 291v113c0 110.667 26.167 193.334 78.5 248.001s137.166 82 254.499 82h340v-1434h-225v584h-78
c-52 0 -89.5 -13.667 -112.5 -41s-34.5 -74.666 -34.5 -141.999v-225c0 -28.667 -0.333008 -52.5 -1 -71.5s-2 -34.667 -4 -47s-4.5 -22.666 -7.5 -30.999s-5.83301 -17.166 -8.5 -26.499h-229zM293.001 939.995c0 -57.333 12 -97 36 -119s57 -33 99 -33h88v441h-108
c-39.333 0 -68.333 -11.667 -87 -35s-28 -61 -28 -113v-141z" />
    <glyph glyph-name="uni0430" unicode="&#x430;" horiz-adv-x="833" 
d="M23 0l229 1434h330l229 -1434h-227l-39 260h-277l-39 -260h-206zM297 455h217l-108 725z" />
    <glyph glyph-name="uni0431" unicode="&#x431;" horiz-adv-x="849" 
d="M84 0v1434h631v-205h-406v-367h131c113.333 0 198.333 -30 255 -90s85 -148 85 -264v-154c0 -116 -28.333 -204 -85 -264s-141.667 -90 -255 -90h-356zM309 205h131c35.333 0 63.333 9.5 84 28.5s31 54.5 31 106.5v182c0 52 -10.167 87.5 -30.5 106.5
s-48.5 28.5 -84.5 28.5h-131v-452z" />
    <glyph glyph-name="uni0432" unicode="&#x432;" horiz-adv-x="831" 
d="M82 0v1434h340c117.333 0 202.333 -27.333 255 -82s79 -137.334 79 -248.001v-51c0 -74 -11.667 -134.833 -35 -182.5s-60.333 -83.167 -111 -106.5c61.333 -23.333 104.666 -61.333 129.999 -114s38 -117 38 -193v-117c0 -110.667 -28.667 -195 -86 -253
s-142.666 -87 -255.999 -87h-354zM307 205.001h129c38 0 67 10.167 87 30.5s30 57.166 30 110.499v125c0 66.667 -11.333 112.334 -34 137.001s-59.667 37 -111 37h-101v-440zM307 850.001h87.999c42 0 75 10.833 99 32.5s36 61.167 36 118.5v80
c0 52 -9.16699 89.667 -27.5 113s-47.166 35 -86.499 35h-109v-379z" />
    <glyph glyph-name="uni0433" unicode="&#x433;" horiz-adv-x="747" 
d="M84 0v1434h594v-205h-369v-1229h-225z" />
    <glyph glyph-name="uni0434" unicode="&#x434;" horiz-adv-x="999" 
d="M33 -193l0.000976562 393.999h88c19.333 24.667 32.666 51.334 39.999 80.001s12.333 64 15 106l51 1047h631v-1233h98v-394h-223v193h-481v-193h-219zM334.001 200.999l295 -0.000976562v1028h-191l-41 -838c-2.66699 -54.667 -9.16699 -95.667 -19.5 -123
s-24.833 -49.666 -43.5 -66.999z" />
    <glyph glyph-name="uni0435" unicode="&#x435;" horiz-adv-x="753" 
d="M82 0v1434h614v-205h-389v-400h309v-204h-309v-420h389v-205h-614z" />
    <glyph glyph-name="uni0436" unicode="&#x436;" horiz-adv-x="1236" 
d="M16 0l279 846l-279 588h226l266 -580v580h223v-580l266 580h226l-277 -582l277 -852h-232l-205 635l-55 -109v-526h-223v526l-55 111l-205 -637h-232z" />
    <glyph glyph-name="uni0437" unicode="&#x437;" 
d="M70 344l0.000976562 157.999h213v-172c0 -52 10.5 -88.667 31.5 -110s49.167 -32 84.5 -32s63.666 11 84.999 33s32 65 32 129v113c0 66.667 -11.667 113.667 -35 141s-60.666 41 -111.999 41h-56v205h68c42 0 75 10.833 99 32.5s36 61.167 36 118.5v80
c0 64 -10.5 107.333 -31.5 130s-49.5 34 -85.5 34c-35.333 0 -63.833 -10.5 -85.5 -31.5s-32.5 -57.5 -32.5 -109.5v-117h-207v107c0 116 27.667 204.333 83 265s138.333 91 249 91s194.167 -31 250.5 -93s84.5 -151 84.5 -267v-37c0 -152.667 -52.333 -251 -157 -295
c57.333 -24.667 97.833 -62.667 121.5 -114s35.5 -113.666 35.5 -186.999v-113c0 -116 -28.333 -205 -85 -267s-140 -93 -250 -93c-110.667 0 -194.334 31 -251.001 93s-85 151 -85 267z" />
    <glyph glyph-name="uni0438" unicode="&#x438;" horiz-adv-x="874" 
d="M82 0v1434h201v-908l82 316l184 592h248v-1434h-203v1010l-92 -353l-189 -657h-231z" />
    <glyph glyph-name="uni0439" unicode="&#x439;" horiz-adv-x="878" 
d="M82 0v1434h201v-908l82 316l184 592h248v-1434h-203v1010l-92 -353l-189 -657h-231zM207 1753h139c2.66699 -38 11.834 -63.167 27.501 -75.5s38.5 -18.5 68.5 -18.5c31.333 0 55.666 6.16699 72.999 18.5s27.333 37.5 30 75.5h137
c0 -69.333 -19.833 -124.5 -59.5 -165.5s-99.834 -61.5 -180.501 -61.5c-79.333 0 -137.666 20.5 -174.999 61.5s-57.333 96.167 -60 165.5z" />
    <glyph glyph-name="uni043A" unicode="&#x43a;" horiz-adv-x="847" 
d="M82 0v1434h225v-625l295 625h225l-313 -639l313 -795h-231l-219 571l-70 -131v-440h-225z" />
    <glyph glyph-name="uni043B" unicode="&#x43b;" horiz-adv-x="921" 
d="M18 -2v204.999c26 0 47.667 1.33301 65 4s31.333 9.16699 42 19.5s18.5 25.333 23.5 45s8.16699 45.834 9.5 78.501l37 1084h636v-1434h-229v1229h-196l-25 -867c-4 -131.333 -31.667 -224.833 -83 -280.5s-133 -83.5 -245 -83.5h-35z" />
    <glyph glyph-name="uni043C" unicode="&#x43c;" horiz-adv-x="1107" 
d="M80 0v1434h313l166 -1018l154 1018h313v-1434h-213v1028l-156 -1028h-213l-168 1014v-1014h-196z" />
    <glyph glyph-name="uni043D" unicode="&#x43d;" horiz-adv-x="874" 
d="M82 0v1434h225v-615h256v615h230v-1434h-230v614h-256v-614h-225z" />
    <glyph glyph-name="uni043E" unicode="&#x43e;" 
d="M63 344l-0.000976562 746c0 116 29.5 205 88.5 267s143.833 93 254.5 93s195.334 -31 254.001 -93s88 -151 88 -267v-746c0 -116 -29.5 -205 -88.5 -267s-143.5 -93 -253.5 -93c-110.667 0 -195.5 31 -254.5 93s-88.5 151 -88.5 267zM288.999 330
c0 -52 10.499 -88.667 31.499 -110s49.5 -32 85.5 -32c35.333 0 63.5 10.667 84.5 32s31.5 58 31.5 110v774c0 52 -10.5 88.5 -31.5 109.5s-49.167 31.5 -84.5 31.5s-63.666 -10.5 -84.999 -31.5s-32 -57.5 -32 -109.5v-774z" />
    <glyph glyph-name="uni043F" unicode="&#x43f;" horiz-adv-x="874" 
d="M82 0v1434h711v-1434h-230v1229h-256v-1229h-225z" />
    <glyph glyph-name="uni0440" unicode="&#x440;" horiz-adv-x="772" 
d="M82 0v1434h332c113.333 0 197.666 -30.167 252.999 -90.5s83 -148.5 83 -264.5v-186c0 -116 -27.667 -204 -83 -264s-139.666 -90 -252.999 -90h-107v-539h-225zM307 743h107c35.333 0 62.5 9.66699 81.5 29s28.5 55 28.5 107v215c0 52 -9.5 87.5 -28.5 106.5
s-46.167 28.5 -81.5 28.5h-107v-486z" />
    <glyph glyph-name="uni0441" unicode="&#x441;" horiz-adv-x="790" 
d="M63 344l-0.000976562 746c0 116 28.333 205 85 267s140.334 93 251.001 93s194.334 -31 251.001 -93s85 -151 85 -267v-140h-213v154c0 52 -10.5 88.5 -31.5 109.5s-49.167 31.5 -84.5 31.5s-63.666 -10.5 -84.999 -31.5s-32 -57.5 -32 -109.5v-774
c0 -52 10.5 -88.333 31.5 -109s49.5 -31 85.5 -31c35.333 0 63.5 10.333 84.5 31s31.5 57 31.5 109v205h213v-191c0 -116 -28.333 -205 -85 -267s-140.334 -93 -251.001 -93s-194.334 31 -251.001 93s-85 151 -85 267z" />
    <glyph glyph-name="uni0442" unicode="&#x442;" horiz-adv-x="729" 
d="M16 1229v205h697v-205h-236v-1229h-225v1229h-236z" />
    <glyph glyph-name="uni0443" unicode="&#x443;" horiz-adv-x="835" 
d="M16 1434l224 0.00292969l122 -490l70 -336l53 334l103 492h235l-241 -1069c-13.333 -64 -30 -120.333 -50 -169s-46.833 -88.334 -80.5 -119.001s-76.667 -52.834 -129 -66.501s-117.5 -17.834 -195.5 -12.501v201c57.333 -4 102.333 1.5 135 16.5s54 48.167 64 99.5
l2 13z" />
    <glyph glyph-name="uni0444" unicode="&#x444;" horiz-adv-x="1193" 
d="M63 516v391c0 116 27.667 204.167 83 264.5s139.666 90.5 252.999 90.5h84v172h222v-172h83c113.333 0 197.666 -30.167 252.999 -90.5s83 -148.5 83 -264.5v-391c0 -116 -27.667 -204 -83 -264s-139.666 -90 -252.999 -90h-83v-162h-222v162h-84
c-113.333 0 -197.666 30 -252.999 90s-83 148 -83 264zM287 502c0 -52 9.83301 -89.001 29.5 -111.001s47.167 -33 82.5 -33h84v705h-84c-35.333 0 -62.833 -10.667 -82.5 -32s-29.5 -57.666 -29.5 -108.999v-420zM705 357.999h83c35.333 0 63 11 83 33s30 59 30 111v420
c0 52 -9.83301 88.5 -29.5 109.5s-47.5 31.5 -83.5 31.5h-83v-705z" />
    <glyph glyph-name="uni0445" unicode="&#x445;" horiz-adv-x="880" 
d="M31 0l252 737l-236 697h234l170 -529l174 529h209l-236 -697l252 -737h-238l-184 567l-186 -567h-211z" />
    <glyph glyph-name="uni0446" unicode="&#x446;" horiz-adv-x="931" 
d="M82 0v1434h225v-1229h256v1229h230v-1233h98v-394h-219v193h-590z" />
    <glyph glyph-name="uni0447" unicode="&#x447;" horiz-adv-x="849" 
d="M68 827v607h225v-588c0 -48 13 -83.5 39 -106.5s56.667 -34.5 92 -34.5s63.666 12.5 84.999 37.5s32 61.5 32 109.5v582h225v-1434h-225v578c-24.667 -27.333 -55.167 -47.5 -91.5 -60.5s-70.166 -19.5 -101.499 -19.5c-92.667 0 -162.5 30.333 -209.5 91
s-70.5 140 -70.5 238z" />
    <glyph glyph-name="uni0448" unicode="&#x448;" horiz-adv-x="1228" 
d="M82 0v1434h225v-1229h195v1229h225v-1229h195v1229h225v-1434h-1065z" />
    <glyph glyph-name="uni0449" unicode="&#x449;" horiz-adv-x="1288" 
d="M82 0v1434h225v-1229h195v1229h225v-1229h195v1229h225v-1233h100v-394h-219v193h-946z" />
    <glyph glyph-name="uni044A" unicode="&#x44a;" horiz-adv-x="899" 
d="M16 1229v205h387v-539h107c113.333 0 197.666 -30 252.999 -90s83 -148 83 -264v-187c0 -116 -27.667 -204 -83 -264s-139.666 -90 -252.999 -90h-332v1229h-162zM403 205h107c35.333 0 62.666 9.5 81.999 28.5s29 54.5 29 106.5v215c0 52 -9.66699 87.5 -29 106.5
s-46.666 28.5 -81.999 28.5h-107v-485z" />
    <glyph glyph-name="uni044B" unicode="&#x44b;" horiz-adv-x="1185" 
d="M82 0v1434h225v-539h107c113.333 0 197.666 -30 252.999 -90s83 -148 83 -264v-187c0 -116 -27.667 -204 -83 -264s-139.666 -90 -252.999 -90h-332zM307 205h107c35.333 0 62.5 9.5 81.5 28.5s28.5 54.5 28.5 106.5v215c0 52 -9.5 87.5 -28.5 106.5
s-46.167 28.5 -81.5 28.5h-107v-485zM879 0v1434h225v-1434h-225z" />
    <glyph glyph-name="uni044C" unicode="&#x44c;" horiz-adv-x="802" 
d="M82 0v1434h225v-539h107c113.333 0 197.666 -30 252.999 -90s83 -148 83 -264v-187c0 -116 -27.667 -204 -83 -264s-139.666 -90 -252.999 -90h-332zM307 205h107c35.333 0 62.5 9.5 81.5 28.5s28.5 54.5 28.5 106.5v215c0 52 -9.5 87.5 -28.5 106.5
s-46.167 28.5 -81.5 28.5h-107v-485z" />
    <glyph glyph-name="uni044D" unicode="&#x44d;" horiz-adv-x="790" 
d="M53 344l0.000976562 170h213v-184c0 -52 10.667 -88.333 32 -109s49.666 -31 84.999 -31s63.666 10.333 84.999 31s32 57 32 109v309h-207v205h207v260c0 52 -10.667 88.5 -32 109.5s-49.666 31.5 -84.999 31.5s-63.666 -10.5 -84.999 -31.5s-32 -57.5 -32 -109.5v-135
h-209v121c0 116 27.667 205 83 267s138.333 93 249 93s194.334 -31 251.001 -93s85 -151 85 -267v-746c0 -116 -28.333 -205 -85 -267s-140.334 -93 -251.001 -93s-194.334 31 -251.001 93s-85 151 -85 267z" />
    <glyph glyph-name="uni044E" unicode="&#x44e;" horiz-adv-x="1226" 
d="M82 0v1434h225v-615h168v271c0 116 29.333 205 88 267s143.334 93 254.001 93s195.334 -31 254.001 -93s88 -151 88 -267v-746c0 -116 -29.333 -205 -88 -267s-143.334 -93 -254.001 -93s-195.334 31 -254.001 93s-88 151 -88 267v270h-168v-614h-225zM700 330
c0 -52 10.667 -88.667 32 -110s49.666 -32 84.999 -32s63.666 10.667 84.999 32s32 58 32 110v774c0 52 -10.667 88.5 -32 109.5s-49.666 31.5 -84.999 31.5s-63.666 -10.5 -84.999 -31.5s-32 -57.5 -32 -109.5v-774z" />
    <glyph glyph-name="uni044F" unicode="&#x44f;" horiz-adv-x="823" 
d="M41 0c10.667 27.333 17.501 54.3281 20.501 80.9951s4.5 57.667 4.5 93v221c0 75.333 10.5 139.333 31.5 192s60.167 90.334 117.5 113.001c-98 46.667 -147 143.667 -147 291v113c0 110.667 26.167 193.334 78.5 248.001s137.166 82 254.499 82h340v-1434h-225v584h-78
c-52 0 -89.5 -13.667 -112.5 -41s-34.5 -74.666 -34.5 -141.999v-225c0 -28.667 -0.333008 -52.5 -1 -71.5s-2 -34.667 -4 -47s-4.5 -22.666 -7.5 -30.999s-5.83301 -17.166 -8.5 -26.499h-229zM293.001 939.995c0 -57.333 12 -97 36 -119s57 -33 99 -33h88v441h-108
c-39.333 0 -68.333 -11.667 -87 -35s-28 -61 -28 -113v-141z" />
    <glyph glyph-name="uni0451" unicode="&#x451;" horiz-adv-x="753" 
d="M82 0v1434h614v-205h-389v-400h309v-204h-309v-420h389v-205h-614zM133 1509v197h197v-197h-197zM444 1509v197h197v-197h-197z" />
    <glyph glyph-name="uni2000" unicode="&#x2000;" horiz-adv-x="915" 
 />
    <glyph glyph-name="uni2001" unicode="&#x2001;" horiz-adv-x="1831" 
 />
    <glyph glyph-name="uni2002" unicode="&#x2002;" horiz-adv-x="915" 
 />
    <glyph glyph-name="uni2003" unicode="&#x2003;" horiz-adv-x="1831" 
 />
    <glyph glyph-name="uni2004" unicode="&#x2004;" horiz-adv-x="610" 
 />
    <glyph glyph-name="uni2005" unicode="&#x2005;" horiz-adv-x="457" 
 />
    <glyph glyph-name="uni2006" unicode="&#x2006;" horiz-adv-x="305" 
 />
    <glyph glyph-name="uni2007" unicode="&#x2007;" horiz-adv-x="305" 
 />
    <glyph glyph-name="uni2008" unicode="&#x2008;" horiz-adv-x="228" 
 />
    <glyph glyph-name="uni2009" unicode="&#x2009;" horiz-adv-x="366" 
 />
    <glyph glyph-name="uni200A" unicode="&#x200a;" horiz-adv-x="101" 
 />
    <glyph glyph-name="uni2010" unicode="&#x2010;" horiz-adv-x="552" 
d="M72 614v205h409v-205h-409z" />
    <glyph glyph-name="uni2011" unicode="&#x2011;" horiz-adv-x="552" 
d="M72 614v205h409v-205h-409z" />
    <glyph glyph-name="figuredash" unicode="&#x2012;" horiz-adv-x="552" 
d="M72 614v205h409v-205h-409z" />
    <glyph glyph-name="endash" unicode="&#x2013;" horiz-adv-x="1024" 
d="M0 625v184h1024v-184h-1024z" />
    <glyph glyph-name="emdash" unicode="&#x2014;" horiz-adv-x="2048" 
d="M0 625v184h2048v-184h-2048z" />
    <glyph glyph-name="quoteleft" unicode="&#x2018;" horiz-adv-x="380" 
d="M82 1012v194l98 228h92l-59 -205h86v-217h-217z" />
    <glyph glyph-name="quoteright" unicode="&#x2019;" horiz-adv-x="380" 
d="M82 1217v217h217v-195l-98 -227h-92l59 205h-86z" />
    <glyph glyph-name="quotesinglbase" unicode="&#x201a;" horiz-adv-x="380" 
d="M82 0v217h217v-194l-98 -228h-92l59 205h-86z" />
    <glyph glyph-name="quotedblleft" unicode="&#x201c;" horiz-adv-x="679" 
d="M82 1012v194l98 228h92l-59 -205h86v-217h-217zM381 1012v194l98 228h92l-59 -205h86v-217h-217z" />
    <glyph glyph-name="quotedblright" unicode="&#x201d;" horiz-adv-x="679" 
d="M82 1217v217h217v-195l-98 -227h-92l59 205h-86zM381 1217v217h217v-195l-98 -227h-92l59 205h-86z" />
    <glyph glyph-name="quotedblbase" unicode="&#x201e;" horiz-adv-x="679" 
d="M82 0v217h217v-194l-98 -228h-92l59 205h-86zM381 0v217h217v-194l-98 -228h-92l59 205h-86z" />
    <glyph glyph-name="ellipsis" unicode="&#x2026;" horiz-adv-x="978" 
d="M82 0v217h217v-217h-217zM381 0v217h217v-217h-217zM680 0v217h217v-217h-217z" />
    <glyph glyph-name="uni202F" unicode="&#x202f;" horiz-adv-x="366" 
 />
    <glyph glyph-name="guilsinglleft" unicode="&#x2039;" horiz-adv-x="401" 
d="M33 719l123 545h213l-121 -545l121 -578h-213z" />
    <glyph glyph-name="guilsinglright" unicode="&#x203a;" horiz-adv-x="401" 
d="M33 141l121 578l-121 545h213l123 -545l-123 -578h-213z" />
    <glyph glyph-name="uni205F" unicode="&#x205f;" horiz-adv-x="457" 
 />
    <glyph glyph-name="Euro" unicode="&#x20ac;" 
d="M39 553v113h57v112h-57v113h57v199c0 116 27.333 205 82 267s137.334 93 248.001 93s193.334 -31 248.001 -93s82 -151 82 -267v-105h-213v119c0 52 -9.66699 88.5 -29 109.5s-46.666 31.5 -81.999 31.5s-62.5 -10.5 -81.5 -31.5s-28.5 -57.5 -28.5 -109.5v-213h315v-113
h-315v-112h315v-113h-315v-223c0 -52 9.5 -88.333 28.5 -109s46.167 -31 81.5 -31s62.666 10.333 81.999 31s29 57 29 109v129h213v-115c0 -116 -27.333 -205 -82 -267s-137.334 -93 -248.001 -93s-193.334 31 -248.001 93s-82 151 -82 267v209h-57z" />
    <glyph glyph-name="trademark" unicode="&#x2122;" horiz-adv-x="1200" 
d="M20 1303v131h443v-131h-150v-598h-143v598h-150zM549 705v729h199l106 -512l96 512h199v-729h-135v518l-96 -518h-136l-108 514v-514h-125z" />
    <glyph glyph-name="uni25FC" unicode="&#x25fc;" horiz-adv-x="1433" 
d="M0 0v1434h1434v-1434h-1434z" />
    <glyph glyph-name="glyph1" horiz-adv-x="0" 
 />
    </font>
</defs>
</svg>
